Поиск

2019 Blossom Dearie - It's The Lovely... Blossom Dearie! Vol 4 {RevOla} [24-44,1]

2019 Blossom Dearie - It's The Lovely... Blossom Dearie! Vol 4 {RevOla} [24-44,1]
Стили:
Издатель (лейбл):
Носитель:
WEB
Формат:
PCM
Тип рипа:
tracks+.cue
Количество каналов:
2.0
Разрядность/ЧД:
24/44,1
Битрейт аудио:
lossless
Время звучания:
01:09:57
Наличие сканов:
web
Наличие водяных знаков:
нет
Страна-производитель диска (релиза):
USA
Релизёр (источник):
M0p94ok

Треклист:

01. Guys And Dolls (Remastered)  02:52
02. Confession (Remastered)  02:44
03. Rhode Island Is Famous For You (Remastered)  02:14
04. To Keep My Love Alive (Remastered)  03:26
05. Too Good For The Average Man (Remastered)  03:31
06. The Gentleman Is A Dope (Remastered)  04:19
07. Always True To You In My Fashion (Remastered)  02:53
08. Napoleon (Remastered)  04:19
09. Life Upon The Wicked Stage (Remastered)  02:42
10. The Physician (Remastered)  02:15
11. Love Is The Reason (Remastered)  03:37
12. Buckle Down, Winsocki (Remastered)  01:49
13. Little Jazz Bird (Remastered)  03:43
14. Gentleman Friend (Remastered)  03:47
15. It's Too Good To Talk About Now (Remastered)  03:08
16. Chez Moi (Remastered)  03:09
17. You Fascinate Me So (Remastered)  03:33
18. You'Ve Got Something I Want (Remastered)  02:34
19. Boum! (Remastered)  02:09
20. L'Etang (Remastered)  02:25
21. Hello Love (Remastered)  02:49
22. Someone To Watch Over Me (Remastered)  05:59

Лог проверки качества
foobar2000 1.3.16 / Dynamic Range Meter 1.1.1
log date: 2019-04-24 10:39:29

--------------------------------------------------------------------------------
Analyzed: Blossom Dearie / It's The Lovely...Blossom Dearie! Vol 4
--------------------------------------------------------------------------------

DR         Peak         RMS     Duration Track
--------------------------------------------------------------------------------
DR13      -7.79 dB   -23.56 dB      2:53 01-Guys And Dolls
DR14      -7.63 dB   -25.07 dB      2:45 02-Confession
DR13      -7.12 dB   -22.45 dB      2:15 03-Rhode Island Is Famous For You
DR14      -7.97 dB   -25.36 dB      3:27 04-To Keep My Love Alive
DR15      -2.61 dB   -24.73 dB      3:32 05-Too Good For The Average Man
DR13      -7.37 dB   -23.56 dB      4:20 06-The Gentleman Is A Dope
DR13      -7.66 dB   -23.35 dB      2:53 07-Always True To You In My Fashion
DR14      -5.27 dB   -23.67 dB      4:20 08-Napoleon
DR15      -5.66 dB   -24.74 dB      2:43 09-Life Upon The Wicked Stage
DR14      -6.55 dB   -24.56 dB      2:15 10-The Physician
DR13      -2.61 dB   -24.02 dB      3:38 11-Love Is The Reason
DR13      -7.77 dB   -23.75 dB      1:49 12-Buckle Down, Winsocki
DR15      -3.14 dB   -20.95 dB      3:43 13-Little Jazz Bird
DR14      -0.74 dB   -20.08 dB      3:48 14-Gentleman Friend
DR14      -1.80 dB   -18.52 dB      3:08 15-It's Too Good To Talk About Now
DR12      -1.29 dB   -17.65 dB      3:10 16-Chez Moi
DR14      -2.87 dB   -20.96 dB      3:33 17-You Fascinate Me So
DR14      -2.12 dB   -20.54 dB      2:35 18-You'Ve Got Something I Want
DR13      -1.93 dB   -17.62 dB      2:09 19-Boum!
DR13      -7.29 dB   -24.44 dB      2:25 20-L'Etang
DR15      -5.91 dB   -24.91 dB      2:49 21-Hello Love
DR16      -3.53 dB   -23.11 dB      5:59 22-Someone To Watch Over Me
--------------------------------------------------------------------------------

Number of tracks:  22
Official DR value: DR14

Samplerate:        44100 Hz
Channels:          2
Bits per sample:   24
Bitrate:           1270 kbps
Codec:             FLAC
================================================================================
Приватный:
Да (DHT отключён)
Размер:
666.18 Мб (698,543,803 байт) » файлов: 24
Участники:
3 раздают, 0 качают (3 участников всего)
Внешние участники:
--- [ Обновить ]
No seeders - write personal message to M0p94ok. Нет сидеров - пишите в личку M0p94ok.
23:26
139
Нет комментариев. Ваш будет первым!