Поиск

1954 Sarah Vaughan - Sarah Vaughan (2010) {EmArcy UCGU-9005} [DSD64]

1954 Sarah Vaughan - Sarah Vaughan (2010) {EmArcy UCGU-9005} [DSD64]
Стили:
Дата записи диска:
8 декабря 1954
Издатель (лейбл):
Номер по каталогу:
UCGU-9005
Битрейт аудио:
lossless
Доп. инфо:

Формат записи/Источник записи: [DSD][SACD-R]
Наличие водяных знаков: Нет
Издание: Reissue
Год издания/переиздания диска: 1954 / 2010
Продолжительность: 49:45
Наличие сканов в содержимом раздачи: Только обложка альбома

Контейнер: DSF (*.dsf)
Тип рипа: tracks
Разрядность: 64(2,8 MHz/1 Bit)
Формат: DSD
Количество каналов: 2.0 (mono)

Лог проверки качества
foobar2000 1.5.2 / Dynamic Range Meter 1.1.1
log date: 2020-09-28 18:13:41

--------------------------------------------------------------------------------
Analyzed: ? / ?
--------------------------------------------------------------------------------

DR         Peak         RMS     Duration Track
--------------------------------------------------------------------------------
DR11      -0.69 dB   -14.64 dB      4:00 ?-1. Lullaby of Birdland
DR12      -0.37 dB   -17.49 dB      6:20 ?-2. April in Paris
DR11      -0.12 dB   -13.85 dB      4:11 ?-3. He's My Guy
DR12      -0.94 dB   -16.25 dB      5:50 ?-4. Jim
DR11      -0.58 dB   -13.44 dB      4:42 ?-5. You're Not the Kind
DR10      -1.21 dB   -16.40 dB      4:50 ?-6. Embraceable You
DR12      -1.06 dB   -16.50 dB      5:11 ?-7. I'm Glad There Is You
DR9       -0.99 dB   -14.91 dB      5:45 ?-8. September Song
DR10      -1.41 dB   -14.62 dB      4:55 ?-9. It's Crazy
DR11      -1.78 dB   -15.31 dB      4:00 ?-10. Lullaby of Birdland (2)
--------------------------------------------------------------------------------

Number of tracks:  10
Official DR value: DR11

Samplerate:        2822400 Hz / PCM Samplerate: 176400 Hz
Channels:          2
Bits per sample:   1
Bitrate:           5645 kbps
Codec:             DSD64
================================================================================
No seeders - write personal message to M0p94ok. Any questions - support@pro-jazz.com.
Нет сидеров - пишите в личку M0p94ok. Есть вопросы - support@pro-jazz.com
23:46
249
Нет комментариев. Ваш будет первым!