Поиск

1962 Jon Hendricks - Fast Livin' Blues (2021) {Music Manager} [24-48]

1962 Jon Hendricks - Fast Livin' Blues (2021) {Music Manager} [24-48]
Стили:
Дата записи диска:
6 сентября - 27 сентября 1961
Издатель (лейбл):
Носитель:
WEB
Формат:
PCM
Тип рипа:
tracks
Контейнер:
FLAC (*.flac)
Количество каналов:
2.0
Разрядность/ЧД:
24/48
Битрейт аудио:
lossless
Время звучания:
00:36:26
Наличие сканов:
только обложка

Треклист:

01. What Would You Do  02:34
02. Fast Livin' Blues  05:42
03. Saturday Night Fish Fry  03:34
04. Do You Call That a Buddy  04:18
05. I'll Die Happy  02:05
06. Another Get Together  04:17
07. Good Old Lady  03:06
08. Contemporary Blues  04:24
09. Stop and Go Blues  03:26
10. I'll Never Get Enough of You  03:00

Состав:
  • Vocals — Jon Hendricks
  • Bass – Ike Isaacs (tracks: 6)
  • Drums – Stu Martin (tracks: 6)
  • Guitar – Freddie Green (tracks: 6)
  • Piano – Gildo Mahones (tracks: 6)
  • Saxophone – Billy Mitchell (tracks: 6)
  • Soprano Saxophone – Pony Poindexter (tracks: 6 to 10)
  • Trombone – Al Grey (tracks: 6)
  • Trumpet – Joe Newman (tracks: 6)
Лог проверки качества
foobar2000 1.4.6 / Dynamic Range Meter 1.1.1
log date: 2021-07-04 07:13:40

--------------------------------------------------------------------------------
Analyzed: Jon Hendricks / Fast Livin' Blues
--------------------------------------------------------------------------------

DR         Peak         RMS     Duration Track
--------------------------------------------------------------------------------
DR10      -0.03 dB   -12.58 dB      2:35 01-What Would You Do
DR12      -0.02 dB   -15.80 dB      5:43 02-Fast Livin' Blues
DR11      -0.17 dB   -12.59 dB      3:34 03-Saturday Night Fish Fry
DR11      -0.20 dB   -15.20 dB      4:19 04-Do You Call That a Buddy
DR10      -0.45 dB   -13.14 dB      2:05 05-I'll Die Happy
DR10      -0.21 dB   -12.88 dB      4:18 06-Another Get Together
DR10      -0.47 dB   -11.93 dB      3:07 07-Good Old Lady
DR12      -0.07 dB   -15.49 dB      4:25 08-Contemporary Blues
DR12      -0.03 dB   -14.83 dB      3:26 09-Stop and Go Blues
DR10      -0.32 dB   -12.97 dB      3:01 10-I'll Never Get Enough of You
--------------------------------------------------------------------------------

Number of tracks:  10
Official DR value: DR11

Samplerate:        48000 Hz
Channels:          2
Bits per sample:   24
Bitrate:           1296 kbps
Codec:             FLAC
================================================================================
По всем вопросам пишите личное сообщение пользователю M0p94ok.
11:03
231
Нет комментариев. Ваш будет первым!