Поиск

1997 Phil Woods Quintet - Souvenirs (2018) {Venus VHGD-280} [DSD64 ISO]

1997 Phil Woods Quintet - Souvenirs (2018) {Venus VHGD-280} [DSD64 ISO]
Стили:
Дата записи диска:
22 июня - 23 июня 1994
Место записи:
Clinton Studio, New York City, NY, USA
Издатель (лейбл):
Номер по каталогу:
VHGD-280
Носитель:
SACD
Формат:
DSD
Тип рипа:
tracks
Контейнер:
ISO (*.iso)
Количество каналов:
2.0
Разрядность/ЧД:
64 (2,8 MHz/1 Bit)
Битрейт аудио:
lossless
Время звучания:
00:50:44
Наличие сканов:
да

1. Peer Pressure  05:52
2. Song For Sisyphus  08:32
3. Souvenirs   06:50
4. Ballad For Hank  09:56
5. C.K's Bossa  07:10
6. Quill  12:22

Состав:
  • Alto Saxophone – Phil Woods
  • Bass – Steve Gilmore
  • Drums – Bill Goodwin
  • Engineer – Kent Heckman
  • Engineer [Assistant] – Jessica Everett
  • Executive-Producer – Tetsuo Hara
  • Piano – Jim McNeely
  • Producer – Bill Goodwin
  • Trumpet – Brian Lynch
Лог проверки качества
foobar2000 1.6.4 / Dynamic Range Meter 1.1.1
log date: 2021-07-12 20:57:25

--------------------------------------------------------------------------------
Analyzed: PHIL WOODS QUINTET / Souvenirs
--------------------------------------------------------------------------------

DR         Peak         RMS     Duration Track
--------------------------------------------------------------------------------
DR9       -4.39 dB   -14.52 dB      5:52 01-Peer Pressure
DR9       -4.64 dB   -15.88 dB      8:32 02-Song For Sisyphus
DR10      -5.35 dB   -17.09 dB      6:50 03-Souvenir
DR9       -5.01 dB   -16.16 dB      9:56 04-Ballad For Hank
DR8       -4.85 dB   -14.91 dB      7:10 05-C.K's Bossa
DR9       -4.33 dB   -15.62 dB     12:24 06-Quill
--------------------------------------------------------------------------------

Number of tracks:  6
Official DR value: DR9

Samplerate:        2822400 Hz / PCM Samplerate: 88200 Hz
Channels:          2
Bits per sample:   1
Bitrate:           5645 kbps
Codec:             DSD64
================================================================================
Скачивание доступно после регистрации!!
Приватный:
Нет (DHT включён)
Размер:
2.05 Гб (2,197,463,724 байт) » файлов: 5
Участники:
0 раздают, 1 качают (1 участников всего)
Внешние участники:
5 раздают, 1 качают (6 участников всего) [ Обновить ]
Скорость:
162.31 Кб/c 0/c
23:02
528
Нет комментариев. Ваш будет первым!