Поиск

1971 Eddie 'Cleanhead' Vinson - You Can't Make Love Alone {Gulf Coast} [24-96]

1971 Eddie 'Cleanhead' Vinson - You Can't Make Love Alone {Gulf Coast} [24-96]
Дата записи диска:
18 июня 1971
Место записи:
Montreux Jazz Festival, Montreux, Switzerland
Дата издания диска:
21 августа 1971
Носитель:
WEB
Формат:
PCM
Тип рипа:
tracks
Контейнер:
FLAC (*.flac)
Количество каналов:
2.0
Разрядность/ЧД:
24/96
Битрейт аудио:
lossless
Наличие сканов:
только обложка

Треклист:

1. Straight No Chaser / Cleanhead Blues  08:39
2. You Can't Make Love Alone  05:03
3. I Had a Dream  06:42
4. Person to Person   06:18

Состав:
  • Larry Coryell    Guitar
  • Neal Creque    Keyboards
  • Cornell Dupree    Guitar
  • Bernard "Pretty" Purdie    Drums
  • Chuck Rainey    Bass
  • Eddie "Cleanhead" Vinson    Saxophone, Vocals
Лог проверки качества
foobar2000 1.6.2 / Dynamic Range Meter 1.1.1
log date: 2021-12-24 16:55:42

--------------------------------------------------------------------------------
Analyzed: Eddie "Cleanhead" Vinson / You Can't Make Love Alone
--------------------------------------------------------------------------------

DR         Peak         RMS     Duration Track
--------------------------------------------------------------------------------
DR11      -1.22 dB   -15.13 dB      8:39 01-Straight No Chaser / Cleanhead Blues
DR11      -1.22 dB   -17.36 dB      5:03 02-You Can't Make Love Alone
DR12      -1.23 dB   -17.74 dB      6:43 03-I Had a Dream
DR13      -1.75 dB   -18.43 dB      6:19 04-Person to Person
--------------------------------------------------------------------------------

Number of tracks:  4
Official DR value: DR12

Samplerate:        96000 Hz
Channels:          2
Bits per sample:   24
Bitrate:           2504 kbps
Codec:             FLAC
================================================================================
По всем вопросам пишите личное сообщение пользователю M0p94ok.
17:06
271
Нет комментариев. Ваш будет первым!