Поиск

2020 Felipe Peña, Alejandro Sánchez, Milton Russell - Suite Espontánea {Vertigo} [24-48]

2020 Felipe Peña, Alejandro Sánchez, Milton Russell - Suite Espontánea {Vertigo} [24-48]
Дата издания диска:
4 марта 2020
Носитель:
WEB
Формат:
PCM
Тип рипа:
tracks
Контейнер:
FLAC (*.flac)
Количество каналов:
2.0
Разрядность/ЧД:
24/48
Битрейт аудио:
lossless
Время звучания:
00:57:55
Наличие сканов:
только обложка

1. Despertar feat. Jasper Huysentruyt, Juan Pablo Jaramillo  08:51
2. Antepasado feat. Jasper Huysentruyt, Juan Pablo Jaramillo  07:31
3. Espíritu de la Escalera feat. Jasper Huysentruyt, Juan Pablo Jaramillo  05:12
4. Premonición feat. Jasper Huysentruyt, Juan Pablo Jaramillo  06:01
5. Mago Blanco feat. Jasper Huysentruyt, Juan Pablo Jaramillo  07:01
6. La Utilidad del Vacío feat. Jasper Huysentruyt, Juan Pablo Jaramillo  03:48
7. Espejos  03:05
8. Sueños feat. Jasper Huysentruyt, Juan Pablo Jaramillo  09:46
9. Esfera Espiral feat. Jasper Huysentruyt, Juan Pablo Jaramillo  06:37

Состав:
  • Felipe Peña
  • Alejandro Sánchez
  • Milton Russell
  • Jasper Huysentruyt
  • Juan Pablo Jaramillo
Лог проверки качества
foobar2000 1.6.2 / Dynamic Range Meter 1.1.1
log date: 2021-12-29 11:23:42

--------------------------------------------------------------------------------
Analyzed: Felipe Peña / Suite Espontánea
--------------------------------------------------------------------------------

DR         Peak         RMS     Duration Track
--------------------------------------------------------------------------------
DR11      -0.31 dB   -13.54 dB      8:51 01-Despertar
DR10      -0.31 dB   -12.93 dB      7:31 02-Antepasado
DR11      -0.32 dB   -13.07 dB      5:12 03-Espíritu de la Escalera
DR10      -0.32 dB   -13.00 dB      6:01 04-Premonición
DR10      -0.78 dB   -12.74 dB      7:02 05-Mago Blanco
DR12      -1.15 dB   -17.09 dB      3:48 06-La Utilidad del Vacío
DR10      -2.70 dB   -16.73 dB      3:06 07-Espejos
DR11      -0.32 dB   -14.93 dB      9:47 08-Sueños
DR10      -0.30 dB   -11.70 dB      6:38 09-Esfera Espiral
--------------------------------------------------------------------------------

Number of tracks:  9
Official DR value: DR10

Samplerate:        48000 Hz
Channels:          2
Bits per sample:   24
Bitrate:           1761 kbps
Codec:             FLAC
================================================================================
Скачивание доступно после регистрации!!
Приватный:
Да (DHT отключён)
Размер:
679.76 Мб (712,778,926 байт) » файлов: 11
Участники:
46 раздают, 0 качают (46 участников всего)
Внешние участники:
--- [ Обновить ]
13:04
435
Нет комментариев. Ваш будет первым!