Поиск

1962 Gloria Lynne - Gloria Lynne At Basin St. East (2021) {RevOla} [24-96]

1962 Gloria Lynne - Gloria Lynne At Basin St. East (2021) {RevOla} [24-96]
Стили:
Дата переиздания диска:
30 июля 2021
Издатель (лейбл):
Носитель:
WEB
Формат:
PCM
Тип рипа:
tracks
Контейнер:
FLAC (*.flac)
Количество каналов:
2.0
Разрядность/ЧД:
24/96
Битрейт аудио:
lossless
Время звучания:
00:45:57
Наличие сканов:
только обложка

Треклист:

01 - And This Is My Beloved (02:36)
02 - It Never Entered My Mind (04:52)
03 - Mack The Knife (05:01)
04 - Drinking Again (02:42)
05 - I Got Rhythm. (02:25)
06 - Fly Me To The Moon (In Other Words) (04:10)
07 - The Second Time Around (04:33)
08 - I Get A Kick Out f You (02:53)
09 - Autumn Leaves (04:09)
10 - Wouldn't It Be Loverly (02:45)
11 - It Just Happened To Me (03:22)
12 - Tall Hope (06:24)

Состав:
  • Murray Cohen     Liner Notes, Producer
  • Herman Foster     Arranger, Conductor, Piano
  • Mel Lewis     Drums
  • Gloria Lynne     Composer, Vocals
  • Earl May     Bass
  • Grassella Oliphant     Drums
  • Al Schmitt     Engineer
  • Leroy Vinnegar     Bass
Лог проверки качества
foobar2000 1.4.2 / Dynamic Range Meter 1.1.1
log date: 2021-08-11 09:24:02
--------------------------------------------------------------------------------
Analyzed: Gloria Lynne / Gloria Lynne At Basin St. East
--------------------------------------------------------------------------------
DR         Peak         RMS     Duration Track
--------------------------------------------------------------------------------
DR9        0.00 dB   -12.36 dB      2:36 01-And This Is My Beloved (Remastered)
DR10       0.00 dB   -15.34 dB      4:53 02-It Never Entered My Mind (Remastered)
DR10       0.00 dB   -12.45 dB      5:02 03-Mack The Knife (Remastered)
DR12       0.00 dB   -16.96 dB      2:43 04-Drinking Again (Remastered)
DR10       0.00 dB   -12.14 dB      2:26 05-I Got Rhythm. (Remastered)
DR11       0.00 dB   -15.72 dB      4:10 06-Fly Me To The Moon (In Other Words) (Remastered)
DR11       0.00 dB   -15.77 dB      4:33 07-The Second Time Around (Remastered)
DR11       0.00 dB   -13.97 dB      2:54 08-I Get A Kick Out f You (Remastered)
DR11       0.00 dB   -15.98 dB      4:10 09-Autumn Leaves (Remastered)
DR12       0.00 dB   -16.28 dB      2:45 10-Wouldn't It Be Loverly? (Remastered)
DR11       0.00 dB   -15.74 dB      3:23 11-It Just Happened To Me (Remastered)
DR12       0.00 dB   -14.93 dB      6:24 12-Tall Hope (Remastered)
--------------------------------------------------------------------------------
Number of tracks:  12
Official DR value: DR11
Samplerate:        96000 Hz
Channels:          2
Bits per sample:   24
Bitrate:           2540 kbps
Codec:             FLAC
================================================================================
По всем вопросам пишите личное сообщение пользователю M0p94ok.
20:59
173
Нет комментариев. Ваш будет первым!