Поиск

2021 Eximo Blue - Daily Escape: Tea Shop & Books {Eximo Music} [24-96]

2021 Eximo Blue - Daily Escape: Tea Shop & Books {Eximo Music} [24-96]
Дата издания диска:
2 июня 2021
Носитель:
WEB
Формат:
PCM
Тип рипа:
tracks
Контейнер:
FLAC (*.flac)
Количество каналов:
2.0
Разрядность/ЧД:
24/96
Битрейт аудио:
lossless
Время звучания:
00:54:41
Наличие сканов:
только обложка

Треклист:

01. Words and Tastes  02:07
02. Tunes in the Teashop  02:01
03. Paperback Drinks  02:14
04. Tea's Out Vibes  02:08
05. Adventures in a Book  02:22
06. Mug in One Hand  02:10
07. Daily Dolce  02:09
08. Notes from the Author  02:11
09. Tales of the Teaboy  02:19
10. Escape Into an Encore  01:55
11. How Good Is Your Imagination  02:20
12. A Book and Tea Shop  02:19
13. Structured Words  02:15
14. Fan of Fiction  02:12
15. Exit the Real World  02:02
16. Tea for Me  02:17
17. Potted Fiction  02:07
18. Escape From the Days Routine  02:07
19. Books on Baroque  02:08
20. Across Calm Teas  02:12
21. Grooves on the Page  02:02
22. A Noble Novel  02:13
23. Sheer Escapism  02:13
24. The Story Is Brewing  02:08
25. Tea in the Library  02:17

Лог проверки качества
foobar2000 1.4.2 / Dynamic Range Meter 1.1.1
log date: 2021-08-11 09:23:49
--------------------------------------------------------------------------------
Analyzed: Eximo Blue / Daily Escape: Tea Shop & Books
--------------------------------------------------------------------------------
DR         Peak         RMS     Duration Track
--------------------------------------------------------------------------------
DR14      -2.71 dB   -22.21 dB      2:08 01-Words and Tastes
DR14      -2.11 dB   -19.68 dB      2:02 02-Tunes in the Teashop
DR13      -3.05 dB   -19.85 dB      2:15 03-Paperback Drinks
DR13      -1.69 dB   -19.03 dB      2:08 04-Tea's Out Vibes
DR13      -2.13 dB   -19.05 dB      2:23 05-Adventures in a Book
DR14      -1.90 dB   -19.21 dB      2:11 06-Mug in One Hand
DR14      -2.74 dB   -20.79 dB      2:10 07-Daily Dolce
DR14      -0.81 dB   -19.61 dB      2:11 08-Notes from the Author
DR13      -2.73 dB   -19.37 dB      2:20 09-Tales of the Teaboy
DR13      -3.79 dB   -20.45 dB      1:56 10-Escape Into an Encore
DR13      -1.66 dB   -19.75 dB      2:21 11-How Good Is Your Imagination
DR13      -3.52 dB   -20.42 dB      2:19 12-A Book and Tea Shop
DR15      -1.15 dB   -20.66 dB      2:16 13-Structured Words
DR13      -2.07 dB   -18.83 dB      2:12 14-Fan of Fiction
DR13      -3.85 dB   -19.46 dB      2:03 15-Exit the Real World
DR13      -3.36 dB   -20.37 dB      2:18 16-Tea for Me
DR12      -3.46 dB   -19.32 dB      2:07 17-Potted Fiction
DR13      -3.52 dB   -19.76 dB      2:07 18-Escape From the Days Routine
DR13      -1.36 dB   -18.76 dB      2:09 19-Books on Baroque
DR12      -3.66 dB   -19.53 dB      2:12 20-Across Calm Teas
DR14      -3.10 dB   -20.16 dB      2:02 21-Grooves on the Page
DR13      -2.19 dB   -20.02 dB      2:13 22-A Noble Novel
DR13      -3.56 dB   -20.06 dB      2:13 23-Sheer Escapism
DR12      -2.32 dB   -19.22 dB      2:09 24-The Story Is Brewing
DR13      -2.54 dB   -19.41 dB      2:18 25-Tea in the Library
--------------------------------------------------------------------------------
Number of tracks:  25
Official DR value: DR13
Samplerate:        96000 Hz
Channels:          2
Bits per sample:   24
Bitrate:           2178 kbps
Codec:             FLAC
================================================================================
По всем вопросам пишите личное сообщение пользователю M0p94ok.
20:05
168
Нет комментариев. Ваш будет первым!