Поиск

1960 Polly Bergen - Four Seasons Of Love (2021) {RevOla} [24-44.1]

1960 Polly Bergen - Four Seasons Of Love (2021) {RevOla} [24-44.1]
Стили:
Дата переиздания диска:
30 июля 2021
Издатель (лейбл):
Носитель:
WEB
Формат:
PCM
Тип рипа:
tracks
Контейнер:
FLAC (*.flac)
Количество каналов:
2.0
Разрядность/ЧД:
24/44,1
Битрейт аудио:
lossless
Время звучания:
01:08:31
Наличие сканов:
да

01. All Alone  03:00
02. Something Wonderful  02:26
03. Glad To Be Unhappy  03:04
04. Too Late Now  02:40
05. He Didn't Call  02:16
06. Spring Is Here  02:37
07. By Myself  02:49
08. When The Wind Was Green  02:47
09. It's Easy To Remember  03:28
10. Not Like Me  02:41
11. I'm Always Chasing Rainbows  02:57
12. I'm Glad There Is You  02:24
13. Four Seasons  02:50
14. Canadian Sunset  02:37
15. Spring Will Be A Little Late This Year  02:49
16. Lazy Afternoon  03:11
17. September In The Rain  02:31
18. June In January  02:44
19. It Might As Well Be Spring  02:58
20. Moonlight In Vermont  03:21
21. Autumn In New York  02:49
22. The Things We Did Last Summer  03:15
23. Autumn Leaves  03:03
24. April In Paris  03:01

Лог проверки качества
foobar2000 1.4.2 / Dynamic Range Meter 1.1.1
log date: 2021-08-12 10:22:46
--------------------------------------------------------------------------------
Analyzed: Polly Bergen / 4 Seasons Of Love
--------------------------------------------------------------------------------
DR         Peak         RMS     Duration Track
--------------------------------------------------------------------------------
DR10      -6.26 dB   -19.90 dB      3:00 01-All Alone (Remastered)
DR10      -6.00 dB   -19.90 dB      2:27 02-Something Wonderful (Remastered)
DR11      -4.06 dB   -18.16 dB      3:05 03-Glad To Be Unhappy (Remastered)
DR11      -4.09 dB   -18.75 dB      2:41 04-Too Late Now (Remastered)
DR10      -5.62 dB   -18.76 dB      2:16 05-He Didn't Call (Remastered)
DR9       -6.40 dB   -19.49 dB      2:38 06-Spring Is Here (Remastered)
DR12      -2.88 dB   -19.63 dB      2:50 07-By Myself (Remastered)
DR10      -5.79 dB   -20.00 dB      2:47 08-When The Wind Was Green (Remastered)
DR11      -3.24 dB   -18.46 dB      3:29 09-It's Easy To Remember (Remastered)
DR10      -6.36 dB   -19.24 dB      2:42 10-Not Like Me (Remastered)
DR11      -4.98 dB   -19.19 dB      2:57 11-I'm Always Chasing Rainbows (Remastered)
DR9       -6.89 dB   -18.73 dB      2:24 12-I'm Glad There Is You (Remastered)
DR11      -4.59 dB   -19.93 dB      2:50 13-Four Seasons (Remastered)
DR12      -5.30 dB   -19.24 dB      2:38 14-Canadian Sunset (Remastered)
DR10      -5.91 dB   -19.62 dB      2:49 15-Spring Will Be A Little Late This Year (Remastered)
DR11      -5.79 dB   -21.46 dB      3:12 16-Lazy Afternoon (Remastered)
DR10      -6.19 dB   -20.84 dB      2:31 17-September In The Rain (Remastered)
DR12      -5.89 dB   -20.44 dB      2:44 18-June In January (Remastered)
DR11      -5.86 dB   -20.91 dB      2:59 19-It Might As Well Be Spring (Remastered)
DR11      -6.73 dB   -20.68 dB      3:22 20-Moonlight In Vermont (Remastered)
DR11      -5.82 dB   -19.62 dB      2:49 21-Autumn In New York (Remastered)
DR11      -6.96 dB   -21.37 dB      3:15 22-The Things We Did Last Summer (Remastered)
DR12      -5.63 dB   -22.05 dB      3:03 23-Autumn Leaves (Remastered)
DR11      -7.41 dB   -20.79 dB      3:02 24-April In Paris (Remastered)
--------------------------------------------------------------------------------
Number of tracks:  24
Official DR value: DR11
Samplerate:        44100 Hz
Channels:          2
Bits per sample:   24
Bitrate:           1400 kbps
Codec:             FLAC
================================================================================
Приватный:
Нет (DHT включён)
Размер:
694.99 Мб (728,749,380 байт) » файлов: 25
Участники:
0 раздают, 0 качают (0 участников всего)
Внешние участники:
3 раздают, 1 качают (4 участников всего) [ Обновить ]
23:39
479
Нет комментариев. Ваш будет первым!