Поиск

1962 Shirley Bassey - Let's Face The Music (2021) {RevOla} [24-96]

1962 Shirley Bassey - Let's Face The Music (2021) {RevOla} [24-96]
Издатель (лейбл):
Носитель:
WEB
Формат:
PCM
Тип рипа:
tracks
Контейнер:
FLAC (*.flac)
Количество каналов:
2.0
Разрядность/ЧД:
24/96
Битрейт аудио:
lossless
Время звучания:
00:41:45
Наличие сканов:
только обложка

Треклист:

01 - Let's Face The Music And Dance (03:11)
02 - I Should Care (03:58)
03 - Let's Fall in Love (03:08)
04 - The Second Time Around (04:34)
05 - Imagination (04:04)
06 - All the Things You Are (03:10)
07 - I Get A Kick Out Of You (02:52)
08 - Everything I Have Is Yours (03:16)
09 - Spring Is Here (04:03)
10 - All of Me (02:48)
11 - I Can't Get You Out of My Mind (03:42)
12 - What Now, My Love (02:54)

Состав:
  • Shirley Bassey     Vocals
  • Nelson Riddle & His Orchestra     Orchestra
  • Recorded By [Supervised] – Norman Newell
  • Sleeve Notes – Kenneth Hume
Лог проверки качества
foobar2000 1.4.2 / Dynamic Range Meter 1.1.1
log date: 2021-08-12 10:23:25
--------------------------------------------------------------------------------
Analyzed: Shirley Bassey / Let's Face The Music
--------------------------------------------------------------------------------
DR         Peak         RMS     Duration Track
--------------------------------------------------------------------------------
DR10      -1.89 dB   -17.64 dB      3:11 01-Let's Face The Music And Dance (Remastered)
DR10      -2.19 dB   -17.07 dB      3:58 02-I Should Care (Remastered)
DR12      -2.39 dB   -18.61 dB      3:08 03-Let's Fall in Love (Remastered)
DR11      -2.69 dB   -18.82 dB      4:35 04-The Second Time Around (Remastered)
DR10      -3.28 dB   -18.28 dB      4:05 05-Imagination (Remastered)
DR6       -2.33 dB   -14.87 dB      3:10 06-All the Things You Are (Remastered)
DR10      -1.79 dB   -17.05 dB      2:52 07-I Get A Kick Out Of You (Remastered)
DR8       -1.09 dB   -15.63 dB      3:16 08-Everything I Have Is Yours (Remastered)
DR10      -2.12 dB   -18.11 dB      4:03 09-Spring Is Here (Remastered)
DR8       -1.18 dB   -13.92 dB      2:48 10-All of Me (Remastered)
DR9       -2.81 dB   -17.05 dB      3:43 11-I Can't Get You Out of My Mind (Remastered)
DR9       -1.55 dB   -15.52 dB      2:54 12-What Now, My Love (Remastered)
--------------------------------------------------------------------------------
Number of tracks:  12
Official DR value: DR9
Samplerate:        96000 Hz
Channels:          2
Bits per sample:   24
Bitrate:           2542 kbps
Codec:             FLAC
================================================================================
По всем вопросам пишите личное сообщение пользователю M0p94ok.
14:25
164
Нет комментариев. Ваш будет первым!