Поиск

1950 Miguelito Valdes - Bim Bam BOOM: 'Mr. Babalu' With Noro Morales Orchestra (2021) {RevOla} [24-96]

1950 Miguelito Valdes - Bim Bam BOOM: 'Mr. Babalu' With Noro Morales Orchestra (2021) {RevOla} [24-96]
Дата переиздания диска:
30 июля 2021
Издатель (лейбл):
Носитель:
WEB
Формат:
PCM
Тип рипа:
tracks
Контейнер:
FLAC (*.flac)
Количество каналов:
2.0
Разрядность/ЧД:
24/96
Битрейт аудио:
lossless
Время звучания:
00:45:37
Наличие сканов:
только обложка

Треклист:

01. Babalu  02:57
02. Bambarito  02:38
03. Sangre Son Colora  02:46
04. Lucumi  02:32
05. Estampas Callejeras  03:07
06. La Negra Leonor  02:54
07. Marimba  03:11
08. Recuerden La Ola Marina  02:44
09. Rumba Rumbero  03:06
10. Bongo Bongosero  03:02
11. Escucha Mi Son  02:57
12. Oh, Mi Tambo!  02:30
13. Rumba Ritmica  02:59
14. Walter Winchell Rhumba  02:33
15. Rumba Rhapsody  03:00
16. Babalu  02:32

Состав:
  • Miguelito Valdes
  • Noro Morales
Лог проверки качества
foobar2000 1.4.2 / Dynamic Range Meter 1.1.1
log date: 2021-08-12 10:22:26
--------------------------------------------------------------------------------
Analyzed: Miguelito Valdes / Bim Bam BOOM: "Mr. Babalu" With Noro Morales Orchestra (1949-1950)
--------------------------------------------------------------------------------
DR         Peak         RMS     Duration Track
--------------------------------------------------------------------------------
DR12      -2.20 dB   -15.74 dB      2:57 01-Babalu (Remastered)
DR12      -1.17 dB   -15.05 dB      2:39 02-Bambarito (Remastered)
DR11      -3.17 dB   -15.99 dB      2:47 03-Sangre Son Colora (Remastered)
DR10      -2.35 dB   -14.30 dB      2:33 04-Lucumi (Remastered)
DR12      -2.44 dB   -15.88 dB      3:08 05-Estampas Callejeras (Remastered)
DR12      -2.93 dB   -16.78 dB      2:55 06-La Negra Leonor (Remastered)
DR10      -2.32 dB   -15.87 dB      3:11 07-Marimba (Remastered)
DR11      -3.10 dB   -15.98 dB      2:45 08-Recuerden La Ola Marina (Remastered)
DR12      -2.52 dB   -16.05 dB      3:06 09-Rumba Rumbero (Remastered)
DR10      -3.93 dB   -17.20 dB      3:03 10-Bongo Bongosero (Remastered)
DR11      -1.13 dB   -14.53 dB      2:58 11-Escucha Mi Son (Remastered)
DR11      -4.73 dB   -18.05 dB      2:31 12-Oh, Mi Tambo! (Remastered)
DR12      -3.30 dB   -17.29 dB      3:00 13-Rumba Ritmica (Remastered)
DR12      -2.01 dB   -15.64 dB      2:34 14-Walter Winchell Rhumba (Remastered)
DR10      -3.50 dB   -16.80 dB      3:00 15-Rumba Rhapsody (Remastered)
DR11      -2.43 dB   -15.92 dB      2:33 16-Babalu (Remastered)
--------------------------------------------------------------------------------
Number of tracks:  16
Official DR value: DR11
Samplerate:        96000 Hz
Channels:          2
Bits per sample:   24
Bitrate:           2234 kbps
Codec:             FLAC
================================================================================
По всем вопросам пишите личное сообщение пользователю M0p94ok.
16:50
187
Нет комментариев. Ваш будет первым!