Вы используете незарегистрированную версию компонента "Вкладки"!

Поиск

1961 Wild Bill Davis & Charlie Shavers - The Music from Milk & Honey (2019) {Everest} [24-44,1]

1961 Wild Bill Davis & Charlie Shavers - The Music from Milk & Honey (2019) {Everest} [24-44,1]
Стили:
Битрейт аудио:
lossless
Доп. инфо:

Формат записи/Источник записи: [TR24][OF]
Издание: Remastered
Год издания/переиздания диска: 1961/2019
Издатель (лейбл): Everest Records
Продолжительность: 00:28:34
Наличие сканов в содержимом раздачи: Нет

Контейнер: FLAC (*.flac)
Тип рипа: tracks
Разрядность: 24/44,1
Количество каналов: 2.0

Источник (релизер): Qobuz

Лог проверки качества
foobar2000 1.3.16 / Dynamic Range Meter 1.1.1
log date: 2019-02-22 18:00:49

--------------------------------------------------------------------------------
Analyzed: Wild Bill Davis, Charlie Shavers / The Music from Milk & Honey
--------------------------------------------------------------------------------

DR         Peak         RMS     Duration Track
--------------------------------------------------------------------------------
DR9       -1.25 dB   -13.40 dB      1:58 01-Milk and Honey
DR8       -1.25 dB   -11.58 dB      2:37 02-That Was Yesterday
DR9       -1.25 dB   -14.12 dB      3:11 03-I Will Follow You
DR8       -1.25 dB   -12.87 dB      3:10 04-Like a Young Man
DR10      -1.25 dB   -13.40 dB      3:53 05-Chin up Ladies
DR9       -1.25 dB   -13.51 dB      2:39 06-Independence Day Hora
DR10      -1.25 dB   -14.69 dB      4:31 07-There's No Reason in the World
DR12      -1.25 dB   -16.30 dB      2:15 08-Shalom
DR11      -1.25 dB   -14.77 dB      2:14 09-Let's Not Waste a Moment
DR12      -1.25 dB   -17.51 dB      2:12 10-As Simple as That
--------------------------------------------------------------------------------

Number of tracks:  10
Official DR value: DR10

Samplerate:        44100 Hz
Channels:          2
Bits per sample:   24
Bitrate:           1207 kbps
Codec:             FLAC
================================================================================
Any questions - support@pro-jazz.com. Есть вопросы - support@pro-jazz.com
15:48
281
Нет комментариев. Ваш будет первым!