Вы используете незарегистрированную версию компонента "Вкладки"!

Поиск

2018 Lee Konitz - Prisma {QFTF} [24-44,1]

2018 Lee Konitz - Prisma {QFTF} [24-44,1]
Битрейт аудио:
lossless
Доп. инфо:

Формат записи/Источник записи: [TR24][OF]
Год издания/переиздания диска: 2018
Издатель (лейбл): QFTF
Продолжительность: 00:33:58
Наличие сканов в содержимом раздачи: Нет

Контейнер: FLAC (*.flac)
Тип рипа: tracks
Разрядность: 24/44,1
Количество каналов: 2.0

Источник (релизер): Qobuz

Лог проверки качества
foobar2000 1.3.7 / Dynamic Range Meter 1.1.1
log date: 2018-04-27 01:19:56

--------------------------------------------------------------------------------
Analyzed: Lee Konitz / Prisma
--------------------------------------------------------------------------------

DR         Peak         RMS     Duration Track
--------------------------------------------------------------------------------
DR8       -0.52 dB   -10.56 dB      3:50 01-I Allegro (feat. Brandenburgisches Staatsorchester Frankfurt)
DR9       -0.52 dB   -11.85 dB      5:20 02-II Adagio (feat. Brandenburgisches Staatsorchester Frankfurt)
DR8       -0.52 dB   -10.72 dB      2:47 03-III Scherzo (feat. Brandenburgisches Staatsorchester Frankfurt)
DR8       -0.52 dB   -10.79 dB      5:05 04-IV Allegro Molto - Allegretto (feat. Brandenburgisches Staatsorchester Frankfurt)
DR12      -0.52 dB   -14.48 dB      7:19 05-Thingin' (feat. Frank Wunsch)
DR12      -0.62 dB   -16.07 dB      3:30 06-Joana's Waltz (feat. Frank Wunsch)
DR12      -0.52 dB   -14.79 dB      6:09 07-Body and Soul (feat. Frank Wunsch)
--------------------------------------------------------------------------------

Number of tracks:  7
Official DR value: DR10

Samplerate:        44100 Hz
Channels:          2
Bits per sample:   24
Bitrate:           1472 kbps
Codec:             FLAC
================================================================================
Any questions - support@pro-jazz.com. Есть вопросы - support@pro-jazz.com
13:56
220
Нет комментариев. Ваш будет первым!