Вы используете незарегистрированную версию компонента "Вкладки"!

Поиск

2017 Fujikochans - introducing Fujikochans with Yuji Ohno & Friends {Lupintic} [24-48]

2017 Fujikochans - introducing Fujikochans with Yuji Ohno & Friends {Lupintic} [24-48]
Стили:
Битрейт аудио:
lossless
Доп. инфо:

Формат записи/Источник записи: [TR24][OF]
Наличие водяных знаков: Нет
Год издания/переиздания диска: 2017
Издатель (лейбл): LUPINTIC LABEL/VAP
Продолжительность: 50:53
Наличие сканов в содержимом раздачи: Нет

Контейнер: FLAC (*.flac)
Тип рипа: tracks
Разрядность: 24/48
Формат: PCM
Количество каналов: 2.0

Источник (релизер): mora.jp

Лог проверки качества
foobar2000 1.5.5 beta 3 / Dynamic Range Meter 1.1.1
log date: 2020-07-29 14:32:41

--------------------------------------------------------------------------------
Analyzed: Fujikochans / introducing Fujikochans with Yuji Ohno & Friends
--------------------------------------------------------------------------------

DR         Peak         RMS     Duration Track
--------------------------------------------------------------------------------
DR7       -0.40 dB    -8.96 dB      3:22 01-憧れのニューヨークシティ
DR6       -0.40 dB    -8.54 dB      4:07 02-涙のレイニーデイ
DR6       -0.40 dB    -8.35 dB      4:41 03-銭形マーチ
DR7       -0.40 dB    -9.74 dB      3:55 04-シークレット・デザイアー
DR7       -0.40 dB    -9.16 dB      4:48 05-恋のカルナバル
DR8       -0.40 dB   -10.26 dB      4:36 06-ルパン三世のテーマ
DR8       -0.40 dB    -9.83 dB      3:53 07-ラブ・スコール
DR8       -0.40 dB   -10.07 dB      4:34 08-Sing a Song
DR7       -0.40 dB    -9.41 dB      4:12 09-ミスティ・トワイライト
DR8       -0.40 dB    -9.97 dB      4:11 10-Crescent Dream
DR6       -0.40 dB    -8.15 dB      2:49 11-ショコラみたいなキスをして
DR9       -0.40 dB   -11.16 dB      5:07 12-ヴェネツィアにさよなら
DR8       -0.40 dB    -9.66 dB      0:48 13-Fujikochansのテーマ
--------------------------------------------------------------------------------

Number of tracks:  13
Official DR value: DR7

Samplerate:        48000 Hz
Channels:          2
Bits per sample:   24
Bitrate:           2308 kbps
Codec:             FLAC
================================================================================
Any questions - support@pro-jazz.com. Есть вопросы - support@pro-jazz.com
17:52
247
Нет комментариев. Ваш будет первым!