Вы используете незарегистрированную версию компонента "Вкладки"!

Поиск

1976 Pat Metheny - Bright Size Life (2020) {ECM} [24-96]

1976 Pat Metheny - Bright Size Life (2020) {ECM} [24-96]
Стили:
Издатель (лейбл):
Битрейт аудио:
lossless
Доп. инфо:

Формат записи/Источник записи: [TR24][OF]
Наличие водяных знаков: Нет
Год издания/переиздания диска: 1976/2020
Продолжительность: 00:36:54
Наличие сканов в содержимом раздачи: Буклет PDF
Контейнер: FLAC (*.flac)
Тип рипа: tracks
Разрядность: 24/96
Формат: PCM
Количество каналов: 2.0
Источник (релизер): highresaudio.com

Лог проверки качества
foobar2000 1.4.8 / Dynamic Range Meter 1.1.1
log date: 2020-08-11 17:27:18

--------------------------------------------------------------------------------
Analyzed: Pat Metheny / Bright Size Life (Remastered)
--------------------------------------------------------------------------------

DR         Peak         RMS     Duration Track
--------------------------------------------------------------------------------
DR12      -0.81 dB   -15.52 dB      4:53 01-Bright Size Life
DR11      -1.43 dB   -15.24 dB      5:29 02-Sirabhorn
DR11      -4.00 dB   -19.59 dB      3:40 03-Unity Village
DR11      -1.13 dB   -14.65 dB      4:21 04-Missouri Uncompromised
DR10      -2.35 dB   -16.55 dB      6:00 05-Midwestern Nights Dream
DR11      -1.26 dB   -13.66 dB      3:36 06-Unquity Road
DR12      -0.68 dB   -14.96 dB      4:20 07-Omaha Celebration
DR12      -1.00 dB   -15.35 dB      4:58 08-Round Trip / Broadway Blues
--------------------------------------------------------------------------------

Number of tracks:  8
Official DR value: DR11
Samplerate:        96000 Hz
Channels:          2
Bits per sample:   24
Bitrate:           3194 kbps
Codec:             FLAC
================================================================================
Any questions - support@pro-jazz.com. Есть вопросы - support@pro-jazz.com
19:07
256
Нет комментариев. Ваш будет первым!