Поиск

1961 The Chris Anderson Trio - Inverted Image (2016) {RevOla} [24-44.1]

1961 The Chris Anderson Trio - Inverted Image (2016) {RevOla} [24-44.1]
Стили:
Дата записи диска:
28 июня (tracks 4, 7 & 8) - 8 ноября (tracks 1-3, 5 & 6) 1961
Место записи:
Bell Sound Studios; Plaza Sound Studios, New York City, NY, USA
Дата издания диска:
8 ноября 1961
Издатель (лейбл):
Носитель:
WEB
Формат:
PCM
Тип рипа:
tracks
Контейнер:
FLAC (*.flac)
Количество каналов:
2.0
Разрядность/ЧД:
24/44,1
Битрейт аудио:
lossless
Время звучания:
00:39:29
Наличие сканов:
только обложка

01 - Inverted Image 06:02
02 - Lullaby Of The Leaves 04:56
03 - My Funny Valentine 04:28
04 - See You Saturday 04:34
05 - Dancing In The Dark 04:31
06 - Only One 04:03
07 - I Hear A Rhapsody 05:05
08 - You’d Be So Nice To Come Home To 05:50

Состав:
Лог проверки качества
foobar2000 1.3.16 / Dynamic Range Meter 1.1.1
log date: 2019-04-02 00:50:16
--------------------------------------------------------------------------------
Analyzed: Bourne / Inverted Image (1)
          Campbell Connelly / Inverted Image (2)
          Chappell / Inverted Image (3)
          Harms / Inverted Image (4)
          Prestige / Inverted Image (5-6)
          Unnotified Work / Inverted Image (7)
          WARNER/CHAPPELL / Inverted Image (8)
--------------------------------------------------------------------------------
DR         Peak         RMS     Duration Track
--------------------------------------------------------------------------------
DR15      -5.10 dB   -25.34 dB      4:56 02-Lullaby Of The Leaves (Chris Anderson Trio)
DR14      -9.03 dB   -27.38 dB      5:05 07-I Hear A Rhapsody (Chris Anderson Trio)
DR15      -1.45 dB   -22.97 dB      5:50 08-You’d Be So Nice To Come Home To (Chris Anderson Trio)
DR14      -3.26 dB   -22.71 dB      4:32 05-Dancing In The Dark (Chris Anderson Trio)
DR14      -5.68 dB   -23.25 dB      6:02 01-Inverted Image (Chris Anderson Trio)
DR14      -8.73 dB   -27.97 dB      4:03 06-Only One (Chris Anderson Trio)
DR14      -4.91 dB   -22.61 dB      4:35 04-See You Saturday (Chris Anderson Trio)
DR13      -8.22 dB   -25.53 dB      4:28 03-My Funny Valentine (Chris Anderson Trio)
--------------------------------------------------------------------------------
Number of tracks:  8
Official DR value: DR14
Samplerate:        44100 Hz
Channels:          2
Bits per sample:   24
Bitrate:           1281 kbps
Codec:             FLAC
================================================================================
Приватный:
Нет (DHT включён)
Размер:
387.00 Мб (405,803,826 байт) » файлов: 14
Участники:
0 раздают, 0 качают (0 участников всего)
Внешние участники:
1 раздают, 0 качают (1 участников всего) [ Обновить ]
23:24
462
Нет комментариев. Ваш будет первым!