Поиск

2021 Duo Brothers - Cookie Stars {Raw Tapes} [24-44.1]

2021 Duo Brothers - Cookie Stars {Raw Tapes} [24-44.1]
Стили:
Место записи:
Saloniki Studios
Дата издания диска:
28 июля 2021
Носитель:
WEB
Формат:
PCM
Тип рипа:
tracks
Контейнер:
FLAC (*.flac)
Количество каналов:
2.0
Разрядность/ЧД:
24/44,1
Битрейт аудио:
lossless
Время звучания:
00:47:04
Наличие сканов:
только обложка

Треклист:

01 - Cookie Stars (03:22)
02 - La fa (03:29)
03 - Life Is Wolt (03:38)
04 - So Many Hits (03:18)
05 - Rough Waters (03:56)
06 - Shrooms for Everyone (02:53)
07 - Memory Man (03:39)
08 - Halom (A Dream) (03:43)
09 - Princess Tahini (03:34)
10 - I Got to Go (04:32)
11 - I Want to Be Alone (01:27)
12 - Ballade (02:00)
13 - The Outrider (04:30)
14 - A King That Walks Down the Street and Says Hi (02:57)

Состав:

Produced by Aviv Cohen (Sol Monk) and Yonatan Levy
Recorded and engineered Aviv Cohen
Mixed by Aviv Cohen (Sol Monk) and Yonatan Levy
Mastered by Asaf Shay
 

Лог проверки качества
foobar2000 1.4.2 / Dynamic Range Meter 1.1.1
log date: 2021-07-28 18:47:37
--------------------------------------------------------------------------------
Analyzed: Duo Brothers / Cookie Stars
--------------------------------------------------------------------------------
DR         Peak         RMS     Duration Track
--------------------------------------------------------------------------------
DR10      -0.50 dB   -12.02 dB      3:22 01-Cookie Stars
DR9       -0.50 dB   -12.28 dB      3:29 02-La fa
DR9       -0.50 dB   -11.73 dB      3:39 03-Life Is Wolt
DR9       -0.50 dB   -11.25 dB      3:18 04-So Many Hits
DR10      -0.50 dB   -11.90 dB      3:57 05-Rough Waters
DR9       -0.50 dB   -12.31 dB      2:54 06-Shrooms for Everyone
DR8       -0.50 dB   -11.36 dB      3:39 07-Memory Man
DR9       -0.50 dB   -12.91 dB      3:43 08-Halom (A Dream)
DR9       -0.50 dB   -11.61 dB      3:35 09-Princess Tahini
DR9       -0.50 dB   -11.91 dB      4:33 10-I Got to Go
DR12      -0.60 dB   -15.93 dB      1:28 11-I Want to Be Alone
DR12      -0.50 dB   -15.17 dB      2:00 12-Ballade
DR9       -0.50 dB   -11.01 dB      4:30 13-The Outrider
DR10      -0.50 dB   -12.39 dB      2:57 14-A King That Walks Down the Street and Says Hi
--------------------------------------------------------------------------------
Number of tracks:  14
Official DR value: DR10
Samplerate:        44100 Hz
Channels:          2
Bits per sample:   24
Bitrate:           1376 kbps
Codec:             FLAC
================================================================================
По всем вопросам пишите личное сообщение пользователю M0p94ok.
18:49
216
Нет комментариев. Ваш будет первым!