Поиск

2016 Beady Belle - On My Own {Jazzland} [24-96]

2016 Beady Belle - On My Own {Jazzland} [24-96]
Стили:
Место записи:
Beady Belle's Studio, Oslo; Buggesroom, Oslo; Cressman Music Studios, San Fransisco; Eastside Sound Studio, New York City
Дата издания диска:
22 сентября 2016
Издатель (лейбл):
Носитель:
WEB
Формат:
PCM
Тип рипа:
tracks
Контейнер:
FLAC (*.flac)
Количество каналов:
2.0
Разрядность/ЧД:
24/96
Битрейт аудио:
lossless
Время звучания:
00:46:18
Наличие сканов:
только обложка

Треклист:

01 - Marbles 05:24
02 - On My Own 04:25
03 - Castle 04:35
04 - Bury 04:55
05 - Almost 05:14
06 - Incompatible (44.1kHz) 03:54
07 - Lost Face 04:10
08 - Dear Hope 03:43
09 - The Clouds 05:33
10 - Traffic in Mumbai 04:25

Состав:
  • Beady Belle     Composer, Engineer, Vocal Arrangement, Vocals, Vocals (Background)
  • Fran Cathcart     Engineer, Guitar, Mixing
  • Jeff Cressman     Engineer
  • Adam Douglas     Proof Reading
  • Mathias Eick     Trumpet
  • Torun Eriksen     Vocals (Background)
  • Gregory Hutchinson     Drums
  • Anja Martine Mørk     Vocals (Background)
  • Joshua Redman     Saxophone
  • Reuben Rogers     Bass (Acoustic)
  • Alex Saltz     Mastering
  • Audun Sandvik     Cello
  • Bugge Wesseltoft     Editing, Engineer, Fender Rhodes, Instrument Arrangement, Percussion, Piano, Producer
Лог проверки качества
foobar2000 1.4.3 / Dynamic Range Meter 1.1.1
log date: 2021-07-22 21:24:58
--------------------------------------------------------------------------------
Analyzed: Beady Belle / On My Own
--------------------------------------------------------------------------------
DR         Peak         RMS     Duration Track
--------------------------------------------------------------------------------
DR9       -0.08 dB   -11.14 dB      5:25 01-Marbles
DR9       -0.08 dB   -11.52 dB      4:25 02-On My Own
DR8       -0.09 dB   -11.68 dB      4:35 03-Castle
DR8       -0.09 dB    -9.38 dB      4:55 04-Bury
DR8       -0.09 dB   -12.95 dB      5:14 05-Almost
DR6       -0.10 dB    -8.03 dB      4:10 07-Lost Face
DR9       -0.09 dB   -12.54 dB      3:44 08-Dear Hope
DR10      -0.09 dB   -12.63 dB      5:34 09-The Clouds
DR7       -0.09 dB    -9.85 dB      4:25 10-Traffic in Mumbai
--------------------------------------------------------------------------------
Number of tracks:  9
Official DR value: DR8
Samplerate:        96000 Hz
Channels:          2
Bits per sample:   24
Bitrate:           2843 kbps
Codec:             FLAC
================================================================================
По всем вопросам пишите личное сообщение пользователю M0p94ok.
14:58
240
Нет комментариев. Ваш будет первым!