Поиск

1961 Quincy Jones & His Orchestra - Big Bands Live (2016) {SWR Jazzhaus} [24-48]

1961 Quincy Jones & His Orchestra - Big Bands Live (2016) {SWR Jazzhaus} [24-48]
Стили:
Битрейт аудио:
lossless
Доп. инфо:

Формат записи/Источник записи: [TR24][OF]
Издание: Remastered
Год издания/переиздания диска: 1961/2016
Издатель (лейбл): SWR Jazzhaus
Продолжительность: 01:14:38
Наличие сканов в содержимом раздачи: Буклет PDF

Контейнер: FLAC (*.flac)
Тип рипа: tracks
Разрядность: 24/48
Количество каналов: 2.0

Источник (релизер): HIGHRESAUDIO

Лог проверки качества
foobar2000 1.4.3 / Dynamic Range Meter 1.1.1
log date: 2020-09-19 18:25:22

--------------------------------------------------------------------------------
Analyzed: Quincy Jones Orchestra / Big Bands Live: Quincy Jones & His Orchestra
--------------------------------------------------------------------------------

DR         Peak         RMS     Duration Track
--------------------------------------------------------------------------------
DR12      -1.98 dB   -16.40 dB      3:52 01-Air Mail Special
DR13      -1.14 dB   -17.73 dB      6:21 02-G'wan Train
DR12      -2.87 dB   -18.02 dB      2:41 03-Solitude
DR11      -1.16 dB   -15.23 dB     11:27 04-Stolen Moments
DR13      -1.34 dB   -16.78 dB     10:46 05-Lester Leaps In
DR12      -1.58 dB   -17.06 dB      2:57 06-Moanin'
DR11      -1.19 dB   -14.94 dB      3:10 07-Porgy and Bess, Act I: Summertime
DR11      -0.69 dB   -15.22 dB      3:58 08-I Remember Clifford
DR12      -0.89 dB   -15.23 dB      4:09 09-Ghana
DR14      -1.44 dB   -18.99 dB      9:43 10-Banja luka
DR13      -1.68 dB   -16.49 dB      2:39 11-Caravan (Live): Caravan
DR12      -3.09 dB   -18.89 dB      4:36 12-The Midnight Sun Will Never Set
DR16      -2.95 dB   -22.75 dB      1:55 13-Quincy Jones Introduces His Orchestra
DR13      -1.28 dB   -18.11 dB      6:29 14-Birth of a Band
--------------------------------------------------------------------------------

Number of tracks:  14
Official DR value: DR13

Samplerate:        48000 Hz
Channels:          2
Bits per sample:   24
Bitrate:           1541 kbps
Codec:             FLAC
================================================================================
No seeders - write personal message to M0p94ok. Any questions - support@pro-jazz.com.
Нет сидеров - пишите в личку M0p94ok. Есть вопросы - support@pro-jazz.com
20:28
181
Нет комментариев. Ваш будет первым!