Вы используете незарегистрированную версию компонента "Вкладки"!

Поиск

2020 Ken Colyer - Wishing Well {Nagel Heyer} [24-44,1]

2020 Ken Colyer - Wishing Well {Nagel Heyer} [24-44,1]
Издатель (лейбл):
Битрейт аудио:
lossless
Доп. инфо:

Формат записи/Источник записи: [TR24][OF]
Издание: Remastered
Год издания/переиздания диска: 2020
Продолжительность: 01:25:06
Наличие сканов в содержимом раздачи: Нет

Контейнер: FLAC (*.flac)
Тип рипа: tracks
Разрядность: 24/44,1
Количество каналов: 2.0

Источник (релизер): Qobuz

Лог проверки качества
foobar2000 1.3.16 / Dynamic Range Meter 1.1.1
log date: 2020-08-26 17:37:40

--------------------------------------------------------------------------------
Analyzed: Ken Colyer / Wishing Well
--------------------------------------------------------------------------------

DR         Peak         RMS     Duration Track
--------------------------------------------------------------------------------
DR10      -1.03 dB   -13.27 dB      3:12 01-(When It's) Darkness on the Delta
DR9       -1.02 dB   -11.19 dB      4:33 02-Cheek to Cheek
DR11      -1.02 dB   -13.89 dB      6:31 03-All of Me
DR10      -1.02 dB   -12.20 dB      3:26 04-Maple Leaf Rag
DR10      -1.02 dB   -13.05 dB      3:36 05-Working Man Blues
DR11      -1.02 dB   -13.18 dB      4:22 06-I Ain't Gonna Give Nobody None of My Jelly Roll
DR9       -1.02 dB   -11.84 dB      2:45 07-Maryland, My Maryland
DR10      -1.02 dB   -12.79 dB      4:32 08-Riverside Blues
DR10      -1.02 dB   -13.22 dB      2:33 09-Heebie Jeebies
DR12      -1.02 dB   -15.77 dB      5:34 10-Just the Blues
DR9       -1.02 dB   -11.52 dB      3:56 11-Nobody Knows the Trouble I've Seen
DR9       -1.02 dB   -11.70 dB      2:55 12-Papa Dip
DR10      -1.02 dB   -12.73 dB      4:30 13-Somebody Stole My Gal
DR10      -1.02 dB   -12.94 dB      3:42 14-Dinah
DR10      -1.02 dB   -13.31 dB      2:46 15-Sweet Lorraine
DR10      -1.02 dB   -12.16 dB      5:16 16-Somewhere over the Rainbow
DR10      -1.02 dB   -13.41 dB      2:47 17-Sweet Sue, Just You
DR8       -1.02 dB   -10.82 dB      2:51 18-Too Busy
DR10      -1.02 dB   -12.48 dB      3:23 19-At a Georgia Camp Meeting
DR9       -1.02 dB   -11.65 dB      2:21 20-Dusty Rag
DR12      -1.02 dB   -14.58 dB      5:14 21-Pretty Baby
DR10      -1.02 dB   -12.16 dB      4:32 22-When I Leave the World Behind
--------------------------------------------------------------------------------

Number of tracks:  22
Official DR value: DR10

Samplerate:        44100 Hz
Channels:          2
Bits per sample:   24
Bitrate:           1655 kbps
Codec:             FLAC
================================================================================
Any questions - support@pro-jazz.com. Есть вопросы - support@pro-jazz.com
19:57
250
Нет комментариев. Ваш будет первым!