Поиск

2016 Christophe Dal Sasso - Les Nébuleuses {Jazz&People JPCD 816005} [24-48]

2016 Christophe Dal Sasso - Les Nébuleuses {Jazz&People JPCD 816005} [24-48]
Стили:
Дата записи диска:
13-14 ноября 2015
Место записи:
Studio Midi Live
Дата издания диска:
23 сентября 2016
Номер по каталогу:
JPCD 816005
Носитель:
WEB
Формат:
PCM
Тип рипа:
tracks+.cue
Количество каналов:
2.0
Разрядность/ЧД:
24/48
Битрейт аудио:
lossless
Время звучания:
00:53:20
Наличие сканов:
да
Страна-производитель диска (релиза):
France
Релизёр (источник):
M0p94ok
Лог проверки качества
foobar2000 1.3.16 / Dynamic Range Meter 1.1.1
log date: 2019-03-25 16:15:00

--------------------------------------------------------------------------------
Analyzed: David El-Malek / Les Nébuleuses
--------------------------------------------------------------------------------

DR         Peak         RMS     Duration Track
--------------------------------------------------------------------------------
DR7        0.00 dB    -9.79 dB      6:21 01-La Nébuleuse d'Orion
DR7        0.00 dB    -9.65 dB      8:39 02-La Nébuleuse du Crabe
DR6        0.00 dB    -8.57 dB      8:15 03-Les Piliers de la création
DR8        0.00 dB   -10.01 dB      7:01 04-V838
DR6        0.00 dB    -8.79 dB     10:31 05-La Nébuleuse de l'Œil du chat
DR6        0.00 dB    -8.54 dB      4:49 06-NGC 2440
DR7        0.00 dB    -9.49 dB      7:46 07-La Nébuleuse de l'Hélice
--------------------------------------------------------------------------------

Number of tracks:  7
Official DR value: DR7

Samplerate:        48000 Hz
Channels:          2
Bits per sample:   24
Bitrate:           1652 kbps
Codec:             FLAC
================================================================================
No seeders - write personal message to M0p94ok. Any questions - support@pro-jazz.com.
Нет сидеров - пишите в личку M0p94ok. Есть вопросы - support@pro-jazz.com
11:29
209
Нет комментариев. Ваш будет первым!