Поиск

2020 John Daversa Quintet - Cuarentena: With Family At Home {Tiger Turn} [24-48]

2020 John Daversa Quintet - Cuarentena: With Family At Home {Tiger Turn} [24-48]
Стили:
Битрейт аудио:
lossless

Треклист:

01 - #45 05:12
02 - #22 06:19
03 - John Daversa: Growing Up in a Musical Family 01:07
04 - La Bailarina (para Tatiana) 06:43
05 - Oma (a la Madre Divina) 07:16
06 - Sammy Figueroa Plays for Charlie Figueroa 00:58
07 - El Último Suspiro 04:01
08 - Soldado Distinguido (para Sgt. Alvin York) 05:17
09 - Puppitas (para Lea y Maya) 04:12
10 - Fábrica de Conservas de San Francisco (La Historia de Molly y Johnny) 03:57
11 - Gonzalo Rubalcaba: El estilo de vida que llevamos es muy rápido 01:05
12 - #19 05:31
13 - Dafnis Prieto: Haciendo la misma cosa que siempre he hecho 01:01
14 - Un Bolero para Lola 05:28
15 - Carlo De Rosa: Can’t visit family 00:34
16 - Opus 1 (escrita por El Abuelo Austin) 04:48
17 - Canción de Cuna para Hara 04:55

Доп. инфо:

Формат записи/Источник записи: [TR24][OF]
Год издания/переиздания диска: 2020
Издатель (лейбл): Tiger Turn
Продолжительность: 01:08:24
Наличие сканов в содержимом раздачи: Нет

Контейнер: FLAC (*.flac)
Тип рипа: tracks
Разрядность: 24/48
Количество каналов: 2.0

Источник (релизер): Qobuz

Лог проверки качества
foobar2000 1.4.3 / Dynamic Range Meter 1.1.1
log date: 2020-09-19 18:15:18

--------------------------------------------------------------------------------
Analyzed: John Daversa Quintet / Cuarantena: With Family At Home
--------------------------------------------------------------------------------

DR         Peak         RMS     Duration Track
--------------------------------------------------------------------------------
DR10      -0.31 dB   -13.45 dB      5:12 01-#45
DR10      -0.31 dB   -12.86 dB      6:20 02-#22
DR15      -2.09 dB   -20.32 dB      1:07 03-John Daversa: Growing Up in a Musical Family
DR11      -0.31 dB   -13.79 dB      6:43 04-La Bailarina (para Tatiana)
DR9       -0.31 dB   -12.25 dB      7:16 05-Oma (a la Madre Divina)
DR16      -1.10 dB   -19.05 dB      0:58 06-Sammy Figueroa Plays for Charlie Figueroa
DR9       -0.31 dB   -12.94 dB      4:02 07-El Último Suspiro
DR10      -0.31 dB   -12.81 dB      5:18 08-Soldado Distinguido (para Sgt. Alvin York)
DR10      -0.31 dB   -13.41 dB      4:12 09-Puppitas (para Lea y Maya)
DR12      -0.32 dB   -16.92 dB      3:57 10-Fábrica de Conservas de San Francisco (La Historia de Molly y Johnny)
DR15      -0.30 dB   -17.18 dB      1:05 11-Gonzalo Rubalcaba: El estilo de vida que llevamos es muy rápido
DR9       -0.31 dB   -12.40 dB      5:32 12-#19
DR15      -1.83 dB   -19.57 dB      1:02 13-Dafnis Prieto: Haciendo la misma cosa que siempre he hecho
DR10      -0.31 dB   -13.52 dB      5:28 14-Un Bolero para Lola
DR15      -1.48 dB   -20.51 dB      0:35 15-Carlo De Rosa: Can’t visit family
DR11      -0.31 dB   -14.75 dB      4:48 16-Opus 1 (escrita por El Abuelo Austin)
DR10      -0.31 dB   -14.84 dB      4:56 17-Canción de Cuna para Hara
--------------------------------------------------------------------------------

Number of tracks:  17
Official DR value: DR12

Samplerate:        48000 Hz
Channels:          2
Bits per sample:   24
Bitrate:           1597 kbps
Codec:             FLAC
================================================================================
Приватный:
Нет (DHT включён)
Размер:
835.40 Мб (875,982,776 байт) » файлов: 22
Участники:
0 раздают, 0 качают (0 участников всего)
Внешние участники:
8 раздают, 2 качают (10 участников всего) [ Обновить ]
No seeders - write personal message to M0p94ok. Нет сидеров - пишите в личку M0p94ok.
21:00
159
Нет комментариев. Ваш будет первым!