Поиск

2012 Eric Legnini Trio - Ballads {Discograph} [24-44,1]

2012 Eric Legnini Trio - Ballads {Discograph} [24-44,1]
Дата издания диска:
7 февраля 2012
Номер по каталогу:
6149782
Носитель:
WEB
Формат:
PCM
Тип рипа:
tracks+.cue
Количество каналов:
2.0
Разрядность/ЧД:
24/44,1
Битрейт аудио:
lossless
Время звучания:
00:47:21
Наличие сканов:
web
Наличие водяных знаков:
нет
Релизёр (источник):
M0p94ok

Треклист:

01. In a Sentimental Mood  04:11
02. Don't Let Me Be Lonely Tonight  03:10
03. I Fall in Love  02:45
04. Introspection #2  01:34
05. Prelude to a Kiss  04:26
06. Willow Weep for Me  04:17
07. Trastevere  02:27
08. Folk Song #1  02:29
09. Portrait in Black and White "Zingaro"  02:38
10. Smoke Gets in Your Eyes  02:46
11. Amarone  02:20
12. Introspection #3  01:17
13. I Can't Get Started  05:08
14. Darn That Dream  04:22
15. Folk Song #2  01:59
16. Joy (Bonus Track)  04:30
17. Near the House on the Hill (Bonus Track)  04:48

Лог проверки качества
foobar2000 1.3.16 / Dynamic Range Meter 1.1.1
log date: 2019-03-25 01:03:01

--------------------------------------------------------------------------------
Analyzed: Eric Legnini Trio / Ballads
--------------------------------------------------------------------------------

DR         Peak         RMS     Duration Track
--------------------------------------------------------------------------------
DR12       0.00 dB   -14.15 dB      4:10 01-In a Sentimental Mood
DR12       0.00 dB   -14.27 dB      3:08 02-Don't Let Me Be Lonely Tonight
DR13       0.00 dB   -15.97 dB      2:31 03-NightFAll
DR11       0.00 dB   -13.84 dB      2:44 04-I Fall In Love
DR11       0.00 dB   -14.67 dB      4:24 05-Prelude to a Kiss
DR12       0.00 dB   -13.90 dB      4:16 06-Willow Weep For Me
DR12       0.00 dB   -14.68 dB      2:25 07-Trastevere
DR14       0.00 dB   -17.64 dB      2:28 08-Folk Song  #1
DR12       0.00 dB   -14.54 dB      2:36 09-Portrait in Black and White 'Zingaro'
DR10       0.00 dB   -14.08 dB      2:45 10-Smoke Gets in Your Eyes
DR12      -0.78 dB   -15.40 dB      2:19 11-Amarone
DR12       0.00 dB   -14.87 dB      2:20 12-It Could Happen to You
DR13       0.00 dB   -15.58 dB      5:07 13-I Can't Get Started
DR13       0.00 dB   -15.52 dB      4:20 14-Darn That Dream
DR10       0.00 dB   -13.94 dB      1:58 15-Folk Song #2
--------------------------------------------------------------------------------

Number of tracks:  15
Official DR value: DR12

Samplerate:        44100 Hz
Channels:          2
Bits per sample:   24
Bitrate:           517 kbps
Codec:             FLAC
================================================================================
Приватный:
Да (DHT отключён)
Размер:
220.91 Мб (231,638,793 байт) » файлов: 17
Участники:
5 раздают, 0 качают (5 участников всего)
Внешние участники:
--- [ Обновить ]
No seeders - write personal message to M0p94ok. Any questions - support@pro-jazz.com.
Нет сидеров - пишите в личку M0p94ok. Есть вопросы - support@pro-jazz.com
22:43
205
Нет комментариев. Ваш будет первым!