Вы используете незарегистрированную версию компонента "Вкладки"!

Поиск

2020 Tingvall Trio - Dance {Skip} [24-96]

2020 Tingvall Trio - Dance {Skip} [24-96]
Стили:
Дата издания диска:
2 октября 2020
Номер по каталогу:
SKP 9177-2
Битрейт аудио:
lossless
Доп. инфо:

Формат записи/Источник записи: [TR24][OF]
Наличие водяных знаков: Нет
Год издания/переиздания диска: 2020
Издатель (лейбл): SKIP Records
Продолжительность: 00:57:13
Наличие сканов в содержимом раздачи: Только обложка альбома

Контейнер: FLAC (*.flac)
Тип рипа: tracks
Разрядность: 24/96
Формат: PCM
Количество каналов: 2.0
Источник (релизер): redacted plitss

Лог проверки качества
foobar2000 1.6 / Dynamic Range Meter 1.1.1
log date: 2020-09-30 19:22:39

--------------------------------------------------------------------------------
Analyzed: Tingvall Trio / Dance
--------------------------------------------------------------------------------

DR         Peak         RMS     Duration Track
--------------------------------------------------------------------------------
DR7       -1.00 dB   -10.58 dB      4:33 01-Tokyo Dance
DR7       -1.00 dB   -10.97 dB      5:39 02-Dance
DR7       -1.00 dB    -9.64 dB      3:41 03-Spanish Swing
DR9       -1.00 dB   -13.53 dB      4:49 04-Flotten
DR8       -1.00 dB   -11.99 dB      2:58 05-Riddaren
DR7       -1.00 dB    -9.41 dB      3:28 06-Cuban SMS
DR8       -1.00 dB   -13.36 dB      5:22 07-Arabic Slow Dance
DR7       -1.00 dB   -11.94 dB      4:19 08-Puls
DR12      -1.00 dB   -15.61 dB      3:34 09-Det Lilla
DR8       -1.00 dB   -11.31 dB      5:29 10-Ya Man
DR9       -1.00 dB   -12.43 dB      4:26 11-Bolero
DR9       -1.00 dB   -14.18 dB      3:44 12-Sommarvisan
DR11      -1.00 dB   -16.40 dB      5:19 13-In Memory
--------------------------------------------------------------------------------

Number of tracks:  13
Official DR value: DR8

Samplerate:        96000 Hz
Channels:          2
Bits per sample:   24
Bitrate:           2540 kbps
Codec:             FLAC
================================================================================
Any questions - support@pro-jazz.com. Есть вопросы - support@pro-jazz.com
23:09
447
Нет комментариев. Ваш будет первым!