Поиск

2013 Fumio Yasuda & Theo Bleckmann - Mother Goose's Melodies (New Interpretations) {Winter&Winter} [24-88,2]

2013 Fumio Yasuda & Theo Bleckmann - Mother Goose's Melodies (New Interpretations) {Winter&Winter} [24-88,2]
Место записи:
Brooklyn Recording, Brooklyn, NYC, New York, USA
Номер по каталогу:
910 195 2
Носитель:
WEB
Формат:
PCM
Тип рипа:
tracks+.cue
Количество каналов:
2.0
Разрядность/ЧД:
24/88,2
Битрейт аудио:
lossless
Время звучания:
00:56:58
Наличие сканов:
да
Наличие водяных знаков:
нет
Страна-производитель диска (релиза):
Germany
Релизёр (источник):
M0p94ok

Треклист:

01. Blue Tail Fly  03:58
02. Mary Had a Little Lamb  04:19
03. Three Blind Mice  03:24
04. Sing a Song of Sixpence  02:46
05. Hush-A-Bye Baby  03:35
06. Little Bo Peep Has Lost Her Sheep  02:20
07. Here We Go 'Round the Mulberry Bush  02:39
08. Tom, Tom, the Piper's Son  02:30
09. Polly Wolly Doodle  05:46
10. Camptown Races  03:16
11. Twinkle, Twinkle, Little Star  04:18
12. Oh, Dear! What Can the Matter Be  04:24
13. Old Folks At Home  02:56
14. Skip to My Lou  03:15
15. Row, Row, Row Your Boat  03:20
16. Hey Diddle Diddle  04:07

Лог проверки качества
foobar2000 1.3.16 / Dynamic Range Meter 1.1.1
log date: 2019-03-12 23:20:15

--------------------------------------------------------------------------------
Analyzed: Fumio Yasuda / Mother Goose's Melodies
--------------------------------------------------------------------------------

DR         Peak         RMS     Duration Track
--------------------------------------------------------------------------------
DR9       -0.20 dB   -12.18 dB      3:58 01-Blue Tail Fly
DR11      -0.20 dB   -14.06 dB      4:19 02-Mary Had a Little Lamb
DR12      -0.20 dB   -13.26 dB      3:24 03-Three Blind Mice
DR12      -0.97 dB   -16.21 dB      2:47 04-Sing a Song of Sixpence
DR11      -0.20 dB   -15.99 dB      3:35 05-Hush-A-Bye Baby
DR12      -0.20 dB   -17.36 dB      2:21 06-Little Bo Peep Has Lost Her Sheep
DR12      -0.20 dB   -15.85 dB      2:39 07-Here We Go 'Round the Mulberry Bush
DR11      -0.20 dB   -13.66 dB      2:30 08-Tom, Tom, the Piper's Son
DR10      -0.20 dB   -14.51 dB      5:46 09-Polly Wolly Doodle
DR12      -0.98 dB   -18.20 dB      3:16 10-Camptown Races
DR12      -0.20 dB   -16.71 dB      4:19 11-Twinkle, Twinkle, Little Star
DR9       -0.20 dB   -12.66 dB      4:24 12-Oh, Dear! What Can the Matter Be
DR9       -0.20 dB   -12.26 dB      2:56 13-Old Folks At Home
DR7       -0.20 dB    -9.50 dB      3:15 14-Skip to My Lou
DR10      -0.20 dB   -12.43 dB      3:20 15-Row, Row, Row Your Boat
DR10      -0.20 dB   -14.39 dB      4:08 16-Hey Diddle Diddle
--------------------------------------------------------------------------------

Number of tracks:  16
Official DR value: DR10

Samplerate:        88200 Hz
Channels:          2
Bits per sample:   24
Bitrate:           2610 kbps
Codec:             FLAC
================================================================================
Приватный:
Да (DHT отключён)
Размер:
1.02 Гб (1,094,090,166 байт) » файлов: 19
Участники:
3 раздают, 7 качают (10 участников всего)
Внешние участники:
--- [ Обновить ]
No seeders - write personal message to M0p94ok. Any questions - support@pro-jazz.com.
Нет сидеров - пишите в личку M0p94ok. Есть вопросы - support@pro-jazz.com
00:25
158
Нет комментариев. Ваш будет первым!