Поиск

1963 Jon Hendricks - Salud Joao Gilberto! (2019) {RevOla} [24-44,1]

1963 Jon Hendricks - Salud Joao Gilberto! (2019) {RevOla} [24-44,1]
Дата издания диска:
1963
Дата переиздания диска:
1 марта 2019
Издатель (лейбл):
Носитель:
WEB
Формат:
PCM
Тип рипа:
tracks+.cue
Количество каналов:
2.0
Разрядность/ЧД:
24/44,1
Битрейт аудио:
lossless
Время звучания:
00:45:09
Наличие сканов:
web
Наличие водяных знаков:
нет
Страна-производитель диска (релиза):
USA
Релизёр (источник):
M0p94ok

Треклист:

01. The Duck (O Pato) (Remastered)  01:57
02. Quiet Nights (Corcovado) (Remastered)  02:08
03. You And I (Voce E Eu) (Remastered)  03:08
04. Love And Peace (O Amor Em Paz) (Remastered)  02:35
05. Little Paper Ball (Bolinha De Papel) (Remastered)  01:18
06. Longing For Bahia (Saudade Da Bahia) (Remastered)  02:28
07. Little Train Of Iron (Trem De Ferro) (Remastered)  01:56
08. No More Blues (Chega De Saudade) (Remastered)  02:07
09. Rosa Morena (Remastered)  02:12
10. The Most Beautiful Thing (Coisa Mais Linda) (Remastered)  03:06
11. Samba Of My Land (Samba Da Minha Terra) (Remastered)  02:31
12. Once Again (Outra Vez) (Remastered)  01:57
13. Jive Samba (Remastered)  02:19

Лог проверки качества
foobar2000 1.3.16 / Dynamic Range Meter 1.1.1
log date: 2019-03-26 18:40:13

--------------------------------------------------------------------------------
Analyzed: Jon Hendricks / Salud Joao Gilberto!
--------------------------------------------------------------------------------

DR         Peak         RMS     Duration Track
--------------------------------------------------------------------------------
DR12      -3.03 dB   -18.51 dB      1:57 01-The Duck (O Pato)
DR10      -4.59 dB   -17.81 dB      2:08 02-Quiet Nights (Corcovado)
DR11      -4.62 dB   -18.46 dB      3:08 03-You And I (Voce E Eu)
DR11      -3.96 dB   -18.77 dB      2:36 04-Love And Peace (O Amor Em Paz)
DR11      -2.81 dB   -16.49 dB      1:18 05-Little Paper Ball (Bolinha De Papel)
DR11      -3.46 dB   -17.54 dB      2:28 06-Longing For Bahia (Saudade Da Bahia)
DR10      -3.83 dB   -16.86 dB      1:57 07-Little Train Of Iron (Trem De Ferro)
DR10      -3.86 dB   -16.84 dB      2:07 08-No More Blues (Chega De Saudade)
DR10      -5.17 dB   -18.04 dB      2:13 09-Rosa Morena
DR10      -4.49 dB   -17.23 dB      3:07 10-The Most Beautiful Thing (Coisa Mais Linda)
DR10      -3.88 dB   -17.01 dB      2:31 11-Samba Of My Land (Samba Da Minha Terra)
DR12      -2.76 dB   -18.03 dB      1:58 12-Once Again (Outra Vez)
DR11      -2.61 dB   -16.18 dB      2:20 13-Jive Samba
--------------------------------------------------------------------------------

Number of tracks:  13
Official DR value: DR11

Samplerate:        44100 Hz
Channels:          2
Bits per sample:   24
Bitrate:           1493 kbps
Codec:             FLAC
================================================================================
Приватный:
Да (DHT отключён)
Размер:
309.64 Мб (324,680,800 байт) » файлов: 15
Участники:
3 раздают, 1 качают (4 участников всего)
Внешние участники:
--- [ Обновить ]
No seeders - write personal message to M0p94ok. Нет сидеров - пишите в личку M0p94ok.
02:49
158
Нет комментариев. Ваш будет первым!