Вы используете незарегистрированную версию компонента "Вкладки"!

Поиск

2014 Jim Black Trio - Actuality {Winter&Winter} [24-88,2]

2014 Jim Black Trio - Actuality {Winter&Winter} [24-88,2]
Стили:
Дата записи диска:
1 января 2014
Место записи:
Sear Sound Studio, New York City, NY, USA
Дата издания диска:
18 июля 2014
Номер по каталогу:
910 213-2
Носитель:
WEB
Формат:
PCM
Тип рипа:
tracks+.cue
Количество каналов:
2.0
Разрядность/ЧД:
24/88,2
Битрейт аудио:
lossless
Время звучания:
00:45:09
Наличие сканов:
web
Страна-производитель диска (релиза):
Germany
Релизёр (источник):
M0p94ok
Лог проверки качества
foobar2000 1.3.16 / Dynamic Range Meter 1.1.1
log date: 2019-03-13 17:38:03

--------------------------------------------------------------------------------
Analyzed: Thomas Morgan / Actuality
--------------------------------------------------------------------------------

DR         Peak         RMS     Duration Track
--------------------------------------------------------------------------------
DR13      -3.30 dB   -22.18 dB      4:01 01-Actuality
DR12      -0.27 dB   -14.10 dB      3:00 02-Skolcats
DR15      -0.29 dB   -18.56 dB      4:17 03-Orrnu
DR13      -0.26 dB   -17.01 dB      5:35 04-Overhanging
DR13      -0.30 dB   -16.83 dB      3:27 05-Untilted
DR12      -0.27 dB   -14.78 dB      5:15 06-This Is Our Marketing
DR14      -0.27 dB   -17.97 dB      5:52 07-Trashed Elegance
DR14      -0.31 dB   -22.09 dB      3:24 08-Dandy Lion
DR13      -0.26 dB   -15.90 dB      3:59 09-Protocolics
DR15      -0.30 dB   -18.63 dB      6:26 10-Should Be Painless
--------------------------------------------------------------------------------

Number of tracks:  10
Official DR value: DR13

Samplerate:        88200 Hz
Channels:          2
Bits per sample:   24
Bitrate:           2738 kbps
Codec:             FLAC
================================================================================
Any questions - support@pro-jazz.com. Есть вопросы - support@pro-jazz.com
02:58
278
Нет комментариев. Ваш будет первым!