Поиск

2019 Josh Lawrence - Happiest Together {Posi-Tone} [24-88,2]

2019 Josh Lawrence - Happiest Together {Posi-Tone} [24-88,2]
Издатель (лейбл):
Носитель:
WEB
Формат:
PCM
Тип рипа:
tracks+.cue
Количество каналов:
2.0
Разрядность/ЧД:
24/88,2
Битрейт аудио:
lossless
Время звучания:
00:13:24
Наличие сканов:
web
Релизёр (источник):
M0p94ok
Лог проверки качества
foobar2000 1.3.16 / Dynamic Range Meter 1.1.1
log date: 2019-03-18 21:12:52

--------------------------------------------------------------------------------
Analyzed: Josh Lawrence / Happiest Together
--------------------------------------------------------------------------------

DR         Peak         RMS     Duration Track
--------------------------------------------------------------------------------
DR9       -0.98 dB   -11.78 dB      4:14 01-We're Happiest Together
DR10      -0.98 dB   -14.00 dB      4:36 02-Sugar Hill Stroll
DR12      -1.04 dB   -16.78 dB      4:35 03-Sunset In Santa Barbara
--------------------------------------------------------------------------------

Number of tracks:  3
Official DR value: DR10

Samplerate:        88200 Hz
Channels:          2
Bits per sample:   24
Bitrate:           2639 kbps
Codec:             FLAC
================================================================================
No seeders - write personal message to M0p94ok. Any questions - support@pro-jazz.com.
Нет сидеров - пишите в личку M0p94ok. Есть вопросы - support@pro-jazz.com
13:09
201
Нет комментариев. Ваш будет первым!