Вы используете незарегистрированную версию компонента "Вкладки"!

Поиск

2014 Judy Garland - 15 Essentials of Judy Garland (Mono Version) {BnF Collection} [24-96]

2014 Judy Garland - 15 Essentials of Judy Garland (Mono Version) {BnF Collection} [24-96]
Дата издания диска:
4 сентября 2014
Носитель:
WEB
Формат:
PCM
Тип рипа:
tracks+.cue
Количество каналов:
2.0
Разрядность/ЧД:
24/96
Битрейт аудио:
lossless
Время звучания:
00:44:24
Наличие сканов:
web
Страна-производитель диска (релиза):
USA
Релизёр (источник):
M0p94ok
Лог проверки качества
foobar2000 1.3.16 / Dynamic Range Meter 1.1.1
log date: 2019-03-24 23:26:42

--------------------------------------------------------------------------------
Analyzed: Judy Garland / 15 Essentials of Judy Garland (Mono Version)
--------------------------------------------------------------------------------

DR         Peak         RMS     Duration Track
--------------------------------------------------------------------------------
DR11      -2.57 dB   -15.92 dB      3:19 01-April Showers (feat. Nelson Riddle and His Orchestra)
DR10      -2.44 dB   -17.04 dB      2:56 02-Just Imagine (feat. Nelson Riddle and His Orchestra)
DR10      -1.61 dB   -16.54 dB      3:45 03-Come Rain or Come Shine (feat. Nelson Riddle and His Orchestra)
DR12      -2.18 dB   -15.55 dB      2:21 04-I Will Come Back (feat. Nelson Riddle and His Orchestra)
DR11      -3.32 dB   -19.63 dB      4:48 05-Dirty Hands, Dirty Face (feat. Nelson Riddle and His Orchestra)
DR11      -6.64 dB   -20.20 dB      2:51 06-How Long Has It Been Going on? (feat. Jack Marshall and His Orchestra)
DR10      -2.94 dB   -17.65 dB      2:11 07-I Feel a Song Comin On (feat. Nelson Riddle and His Orchestra)
DR10      -2.08 dB   -17.31 dB      4:10 08-Any Place I Hang My Hat Is Home (feat. Nelson Riddle and His Orchestra)
DR11      -2.24 dB   -18.95 dB      3:28 09-Last Night When We Were Young (feat. Nelson Riddle and His Orchestra)
DR11      -5.77 dB   -20.75 dB      2:39 10-If I Love Again (feat. Jack Marshall and His Orchestra)
DR10      -1.65 dB   -14.54 dB      2:49 11-Lucky Day (feat. Nelson Riddle and His Orchestra)
DR11      -5.25 dB   -19.69 dB      1:39 12-Just You, Just Me (feat. Jack Marshall and His Orchestra)
DR10      -2.68 dB   -16.36 dB      1:58 13-Life Is Just a Bowl of Cherries (feat. Nelson Riddle and His Orchestra)
DR9       -4.57 dB   -17.92 dB      3:38 14-Memories of You (feat. Nelson Riddle and His Orchestra)
DR11      -5.39 dB   -19.14 dB      1:57 15-Puttin' on the Ritz (feat. Jack Marshall and His Orchestra)
--------------------------------------------------------------------------------

Number of tracks:  15
Official DR value: DR11

Samplerate:        96000 Hz
Channels:          2
Bits per sample:   24
Bitrate:           1233 kbps
Codec:             FLAC
================================================================================
Any questions - support@pro-jazz.com. Есть вопросы - support@pro-jazz.com
16:45
203
Нет комментариев. Ваш будет первым!