Поиск

2019 Hank Jones & Thad Jones - Phases {Nagel Heyer} [24-44,1]

2019 Hank Jones & Thad Jones - Phases {Nagel Heyer} [24-44,1]
Издатель (лейбл):
Битрейт аудио:
lossless
Доп. инфо:

Формат записи/Источник записи: [TR24][OF]
Издание: Remastered
Год издания/переиздания диска: 2019
Жанр: Jazz
Издатель (лейбл): nagel heyer records
Продолжительность: 01:37:25
Наличие сканов в содержимом раздачи: Нет

Контейнер: FLAC (*.flac)
Тип рипа: tracks
Разрядность: 24/44,1
Количество каналов: 2.0

Источник (релизер): Qobuz

Лог проверки качества
foobar2000 1.4.3 / Dynamic Range Meter 1.1.1
log date: 2020-09-19 18:04:02

--------------------------------------------------------------------------------
Analyzed: Hank Jones / Phases
--------------------------------------------------------------------------------

DR         Peak         RMS     Duration Track
--------------------------------------------------------------------------------
DR10      -2.88 dB   -14.85 dB      4:10 01-Shadowland
DR12      -2.85 dB   -15.88 dB      3:34 02-Pretty Brown
DR10      -2.85 dB   -16.57 dB      4:27 03-You Are Too Beautiful
DR10      -2.85 dB   -15.99 dB      6:36 04-Buzz-At
DR11      -2.85 dB   -16.47 dB      2:40 05-Bye and Bye When the Morning Comes
DR12      -2.87 dB   -17.13 dB      5:01 06-Six and Four
DR10      -2.88 dB   -16.32 dB      3:33 07-You Don't Know What Love Is
DR10      -2.85 dB   -15.44 dB      4:34 08-Lonesome Road
DR10      -2.85 dB   -16.64 dB      6:14 09-Keepin' up with the Joneses
DR10      -2.85 dB   -15.74 dB      6:46 10-Nice and Nasty
DR11      -2.85 dB   -17.07 dB      4:10 11-There Is No Greater Love
DR10      -2.85 dB   -15.91 dB      8:06 12-Ray-El
DR9       -2.85 dB   -14.68 dB      4:57 13-Three and One
DR11      -2.86 dB   -16.71 dB      3:17 14-On the Alamo
DR8       -2.85 dB   -12.78 dB      2:53 15-Little Girl Blue
DR9       -2.85 dB   -15.01 dB      4:50 16-It Had to Be You
DR12      -2.88 dB   -16.82 dB      2:29 17-Teach Me Tonight
DR10      -2.85 dB   -16.01 dB      6:24 18-Lady Luck
DR11      -2.86 dB   -15.84 dB      3:14 19-Mack the Knife
DR11      -2.86 dB   -17.11 dB      6:08 20-Sput 'N' Jeff
DR10      -2.85 dB   -14.98 dB      3:35 21-Royal Garden Blues
--------------------------------------------------------------------------------

Number of tracks:  21
Official DR value: DR10

Samplerate:        44100 Hz
Channels:          2
Bits per sample:   24
Bitrate:           1482 kbps
Codec:             FLAC
================================================================================
No seeders - write personal message to M0p94ok. Any questions - support@pro-jazz.com.
Нет сидеров - пишите в личку M0p94ok. Есть вопросы - support@pro-jazz.com
23:21
300
Нет комментариев. Ваш будет первым!