Поиск

2019 Lalo Schifrin - The Bossa Nova And Latin Recordings Vol. 2 {RevOla} [24-44,1]

2019 Lalo Schifrin - The Bossa Nova And Latin Recordings Vol. 2 {RevOla} [24-44,1]
Дата переиздания диска:
2 марта 2019
Издатель (лейбл):
Номер по каталогу:
CREVV 518
Носитель:
WEB
Формат:
PCM
Тип рипа:
tracks+.cue
Количество каналов:
2.0
Разрядность/ЧД:
24/44,1
Битрейт аудио:
lossless
Время звучания:
01:19:09
Наличие сканов:
web
Наличие водяных знаков:
нет
Релизёр (источник):
M0p94ok

Треклист:

01. Silvia (Remastered)  03:13
02. Murmurio (Remastered)  02:03
03. Maria (Remastered)  02:31
04. Rapaz de Bem (Remastered)  02:36
05. Samba do Perroquet (Parrot Samba) (Remastered)  02:06
06. Rio After Dark (Remastered)  02:35
07. Time For Love (Remastered)  02:28
08. (I'm Looking over a) Four Leaf Clover (Remastered)  01:52
09. Frenesi (Remastered)  03:20
10. The Breeze and I (Andalucia) (Remastered)  02:49
11. Capricho Espanol (Remastered)  03:22
12. My Shawl (Remastered)  02:46
13. Caravan (Remastered)  03:14
14. Malaguena (Remastered)  02:12
15. Cha Cha Cha Flamenco (Remastered)  02:54
16. Warsaw Concierto (Remastered)  02:03
17. Hulablues (Remastered)  03:11
18. Jungle Fantasy (Remastered)  02:34
19. All the Things You Are (Remastered)  03:16
20. El Cumbanchero (Remastered)  02:36
21. Moulin Rouge (Remastered)  03:29
22. Les Oignons (Remastered)  02:44
23. Fascination (Remastered)  03:44
24. Cabello Rojo (Remastered)  03:02
25. Mon Homme (Remastered)  03:36
26. Mambop (Remastered)  03:00
27. Pigalle (Remastered)  03:06
28. Serenade Mediterraneenne (Bolero) (Remastered)  02:47

Доп. инфо:

1-8 из альбома Insensatez [A.k.a. Piano, Strings & Bossa Nova], записан 23 октября 1962 в Нью-Йорке
9-20 из альбома Piano Espanol: The Magic Touch Of Lalo Schifrin, His Piano & Orchestra, записан в 1959 в Нью-Йорке
21-28 из альбома Rendez-Vous Dansant A Copacabana, записан в 1955 в Париже

Лог проверки качества
foobar2000 1.3.16 / Dynamic Range Meter 1.1.1
log date: 2019-03-26 18:40:45

--------------------------------------------------------------------------------
Analyzed: Lalo Schifrin / The Bossa Nova And Latin Recordings Vol 2
--------------------------------------------------------------------------------

DR         Peak         RMS     Duration Track
--------------------------------------------------------------------------------
DR12      -2.70 dB   -18.07 dB      3:13 01-Silvia
DR12      -0.52 dB   -17.39 dB      2:04 02-Murmurio
DR12      -0.25 dB   -17.19 dB      2:32 03-Maria
DR12      -2.45 dB   -16.88 dB      2:37 04-Rapaz de Bem
DR12      -0.91 dB   -16.89 dB      2:06 05-Samba do Perroquet (Parrot Samba)
DR12      -1.76 dB   -16.32 dB      2:36 06-Rio After Dark
DR11      -3.12 dB   -17.56 dB      2:28 07-Time For Love
DR12      -2.72 dB   -18.08 dB      1:53 08-(I'm Looking over a) Four Leaf Clover
DR11      -1.67 dB   -16.61 dB      3:21 09-Frenesi
DR11      -3.41 dB   -17.72 dB      2:50 10-The Breeze and I (Andalucia)
DR13      -3.85 dB   -19.00 dB      3:23 11-Capricho Espanol
DR13      -2.71 dB   -19.45 dB      2:47 12-My Shawl
DR13      -3.65 dB   -19.78 dB      3:15 13-Caravan
DR12      -3.34 dB   -17.96 dB      2:13 14-Malaguena
DR12      -3.15 dB   -17.53 dB      2:55 15-Cha Cha Cha Flamenco
DR11      -2.93 dB   -17.32 dB      2:03 16-Warsaw Concierto
DR13      -3.25 dB   -19.85 dB      3:11 17-Hulablues
DR11      -3.42 dB   -17.30 dB      2:34 18-Jungle Fantasy
DR12      -3.85 dB   -20.08 dB      3:17 19-All the Things You Are
DR12      -2.47 dB   -16.68 dB      2:37 20-El Cumbanchero
DR11      -1.19 dB   -14.27 dB      3:29 21-Moulin Rouge
DR11      -0.85 dB   -13.60 dB      2:44 22-Les Oignons
DR12      -1.17 dB   -15.07 dB      3:45 23-Fascination
DR10      -0.27 dB   -13.18 dB      3:03 24-Cabello Rojo
DR12      -1.04 dB   -15.28 dB      3:36 25-Mon Homme
DR12      -1.05 dB   -15.35 dB      3:00 26-Mambop
DR12      -0.99 dB   -14.69 dB      3:06 27-Pigalle
DR12      -1.03 dB   -15.86 dB      2:47 28-Serenade Mediterraneenne (Bolero)
--------------------------------------------------------------------------------

Number of tracks:  28
Official DR value: DR12

Samplerate:        44100 Hz
Channels:          2
Bits per sample:   24
Bitrate:           1179 kbps
Codec:             FLAC
================================================================================
Приватный:
Да (DHT отключён)
Размер:
761.17 Мб (798,140,141 байт) » файлов: 30
Участники:
2 раздают, 0 качают (2 участников всего)
Внешние участники:
--- [ Обновить ]
No seeders - write personal message to M0p94ok. Нет сидеров - пишите в личку M0p94ok.
00:21
166
Нет комментариев. Ваш будет первым!