Поиск

1961 Art Blakey & The Jazz Messengers - First Flight To Tokyo: The Lost 1961 Recordings (2021) {Blue Note} [24-192]

1961 Art Blakey & The Jazz Messengers - First Flight To Tokyo: The Lost 1961 Recordings (2021) {Blue Note} [24-192]
Дата записи диска:
14 января 1961
Место записи:
Hibiya Public Hall, Tokyo, Japan
Дата переиздания диска:
10 декабря 2021
Издатель (лейбл):
Носитель:
WEB
Формат:
PCM
Тип рипа:
tracks
Контейнер:
FLAC (*.flac)
Количество каналов:
2.0
Разрядность/ЧД:
24/192
Битрейт аудио:
lossless
Время звучания:
01:42:59
Наличие сканов:
только обложка

01 - Now's The Time 22:34
02 - Moanin' 13:32
03 - Blues March 11:44
04 - The Theme 00:32
05 - Dat Dere 12:13
06 - 'Round About Midnight 13:28
07 - Now's The Time (Version 2) 17:15
08 - A Night In Tunisia 11:11
09 - The Theme (Version 2) 00:30

Состав:
  • Bass – Jymie Merritt
  • Co-producer – Zak Shelby-Szyszko
  • Coordinator – Fumiko Sakao, Ryuichiro Nemoto, Yoshihisa Saito
  • Drums – Art Blakey
  • Executive Producer – Don Was
  • Mastered By – Bernie Grundman
  • Piano – Bobby Timmons
  • Producer [For Release] – David Weiss (9), Zev Feldman
  • Recorded By – Tetsuo Yasuda
  • Tenor Saxophone – Wayne Shorter
  • Trumpet – Lee Morgan
Лог проверки качества
foobar2000 1.4.3 / Dynamic Range Meter 1.1.1
log date: 2021-12-11 14:47:26
--------------------------------------------------------------------------------
Analyzed: Art Blakey & The Jazz Messengers / First Flight To Tokyo: The Lost 1961 Recordings
--------------------------------------------------------------------------------
DR         Peak         RMS     Duration Track
--------------------------------------------------------------------------------
DR12      -0.20 dB   -14.88 dB     22:34 01-Now's The Time (Live At Hibiya Public Hall, Tokyo, Japan 1/14/61)
DR12      -0.77 dB   -15.97 dB     13:33 02-Moanin' (Live At Hibiya Public Hall, Tokyo, Japan 1/14/61)
DR12      -0.48 dB   -15.23 dB     11:45 03-Blues March (Live At Hibiya Public Hall, Tokyo, Japan 1/14/61)
DR11      -0.90 dB   -15.60 dB      0:33 04-The Theme (Live At Hibiya Public Hall, Tokyo, Japan 1/14/61)
DR13      -0.20 dB   -16.38 dB     12:14 05-Dat Dere (Live At Hibiya Public Hall, Tokyo, Japan 1/14/61)
DR14      -0.89 dB   -19.40 dB     13:29 06-'Round About Midnight (Live At Hibiya Public Hall, Tokyo, Japan 1/14/61)
DR10      -0.20 dB   -13.10 dB     17:15 07-Now's The Time (Version 2 / Live At Hibiya Public Hall, Tokyo, Japan 1/14/61)
DR11      -0.20 dB   -14.11 dB     11:12 08-A Night In Tunisia (Live At Hibiya Public Hall, Tokyo, Japan 1/14/61)
DR11      -0.20 dB   -13.24 dB      0:30 09-The Theme (Version 2 / Live At Hibiya Public Hall, Tokyo, Japan 1/14/61)
--------------------------------------------------------------------------------
Number of tracks:  9
Official DR value: DR12
Samplerate:        192000 Hz
Channels:          2
Bits per sample:   24
Bitrate:           4465 kbps
Codec:             FLAC
================================================================================
Скачивание доступно после регистрации!!
Приватный:
Нет (DHT включён)
Размер:
3.28 Гб (3,520,449,433 байт) » файлов: 15
Участники:
0 раздают, 0 качают (0 участников всего)
Внешние участники:
9 раздают, 3 качают (12 участников всего) [ Обновить ]
12:00
403
Нет комментариев. Ваш будет первым!