Поиск

2017 Aruan Ortiz - Cuban Nocturne (2021) {Newvelle} [24-88.2]

2017 Aruan Ortiz - Cuban Nocturne (2021) {Newvelle} [24-88.2]
Дата записи диска:
5 сентября и 10 сентября 2016
Место записи:
East Side Sound NYC, New York
Дата переиздания диска:
10 декабря 2021
Носитель:
WEB
Формат:
PCM
Тип рипа:
tracks
Контейнер:
FLAC (*.flac)
Количество каналов:
2.0
Разрядность/ЧД:
24/88,2
Битрейт аудио:
lossless
Время звучания:
00:38:50
Наличие сканов:
только обложка

Треклист:

01 - Cuban Nocturne (Theme from Sin Alas) 06:41
02 - Tres Lindas Cubans 05:28
03 - Musica Callada 05:19
04 - Picotazos 04:21
05 - Interlude 01:18
06 - Danza Negra 08:14
07 - Los Tres Golpes 05:01
08 - Interlude 2 01:03
09 - Illusiones Perdidas 01:25

Состав:
  • Mastered By – Alex DeTurk
  • Mixed By – Marc Urselli
  • Piano – Aruán Ortiz
  • Producer – Elan Mehler, Jean-Christophe Morisseau
  • Recorded By – Marc Urselli
Доп. инфо:

Cuban Nocturne", релиз известного пианиста Аруана Ортиса, впервые доступен в высококачественном цифровом формате. Названный Audiophile Audition "свидетельством музыкальности Аруана Ортиса и исторической данью кубинской классической музыке", девять треков альбома являются отражением музыки, которой было пропитано детство исполнителя, когда он рос на Кубе. В интерпретации композиций таких гигантов кубинской классической музыки, как Ромеу и Лекуона, работы Аруана отличаются чистотой, романтичностью и кристальной чистотой. Заглавная композиция является примером мастерства пианиста в балансировании и синтезе элементов его музыкальной идентичности. Ортис уже два десятилетия является активной фигурой на прогрессивной джазовой и авангардной сцене США и считается "одним из самых креативных и оригинальных композиторов в мире" (The Art Music Lounge). Он писал для самых разных коллективов - от джазовых ансамблей до танцевальных трупп и художественных фильмов.

Лог проверки качества
foobar2000 1.4.3 / Dynamic Range Meter 1.1.1
log date: 2021-12-11 18:49:04
--------------------------------------------------------------------------------
Analyzed: Aruan Ortiz / Cuban Nocturne
--------------------------------------------------------------------------------
DR         Peak         RMS     Duration Track
--------------------------------------------------------------------------------
DR13      -0.68 dB   -18.24 dB      6:42 01-Cuban Nocturne (Theme from Sin Alas)
DR12      -0.30 dB   -15.44 dB      5:28 02-Tres Lindas Cubans
DR13      -0.30 dB   -17.70 dB      5:20 03-Musica Callada
DR12      -0.30 dB   -15.05 dB      4:21 04-Picotazos
DR9       -3.91 dB   -17.51 dB      1:18 05-Interlude
DR12      -0.30 dB   -16.16 dB      8:15 06-Danza Negra
DR12      -0.30 dB   -15.73 dB      5:01 07-Los Tres Golpes
DR10      -6.27 dB   -20.17 dB      1:04 08-Interlude 2
DR12      -0.30 dB   -16.66 dB      1:25 09-Illusiones Perdidas
--------------------------------------------------------------------------------
Number of tracks:  9
Official DR value: DR12
Samplerate:        88200 Hz
Channels:          2
Bits per sample:   24
Bitrate:           2241 kbps
Codec:             FLAC
================================================================================
13:32
370
Нет комментариев. Ваш будет первым!