Поиск

1976 Chuck Mangione - Main Squeeze (2021) {A&M} [24-96]

1976 Chuck Mangione - Main Squeeze (2021) {A&M} [24-96]
Место записи:
Electric Lady Studios, Media Sound & P.C.I. Rose Bud.
Издатель (лейбл):
Носитель:
WEB
Формат:
PCM
Тип рипа:
tracks
Контейнер:
FLAC (*.flac)
Количество каналов:
2.0
Разрядность/ЧД:
24/96
Битрейт аудио:
lossless
Время звучания:
00:37:47
Наличие сканов:
только обложка

Треклист:

01 - (The Day After) Our First Night Together 07:59
02 - If You Know Me Any Longer Than Tomorrow 07:57
03 - Love The Feelin' 04:52
04 - I Get Crazy (When Your Eyes Touch Mine) 04:27
05 - Doin' Everything With You 07:02
06 - Main Squeeze 05:30

Состав:
  •     Acoustic Guitar – Bob Mann, John Tropea
  •     Concertmaster – Gene Orloff
  •     Drums – Steve Gadd
  •     Electric Bass – Tony Levin
  •     Electric Guitar – Bob Mann, John Tropea
  •     Electric Piano [Fender Rhodes] – Chuck Mangione, Don Grolnick
  •     Engineer – Mick Guzauski
  •     Engineer [Assistant] – Michael Frondelli
  •     Flugelhorn, Orchestrated By – Chuck Mangione
  •     French Horn – Bob Carlisle, Fred Griffen*, Jimmy Buffington*, John Clark (2)
  •     Management – Tom Iannaccone
  •     Mastered By – Frank DeLuna
  •     Organ – Richard Tee
  •     Percussion – Ralph MacDonald, Rubens Bassini, Steve Gadd
  •     Piano [Acoustic] – Don Grolnick
  •     Producer – Chuck Mangione
  •     Trombone – Bill Watrous, Dave Taylor*, Tom Malone, Wayne Andre
  •     Trumpet – Alan Rubin, Jeff Tkazyik, John Faddis*, Lew Soloff
Доп. инфо:

Все больше и больше становясь существом студийным, Манджионе нанимает группу нью-йоркских сессионщиков 70-х годов для записи альбома, который носит свои музыкальные намерения прямо на своем бархатном рукаве. Все названия отражают тот или иной аспект любовных отношений; игра сложная, но очень контролируемая и не слишком захватывающая. Как ни странно, Чак эффективно подключает педаль вах-вах к своему флейгельгорну в нескольких треках - оттенки периода "jungle band" Майлза Дэвиса - и исполняет свое лучшее соло без электронной модуляции в "If You Know Me Any Longer Than Tomorrow". Здесь есть оркестровки, но они лишь украшение, а не неотъемлемая часть материала. Но затем, после того, как все эти теплые, пушистые вещи прошли свой путь в течение пяти треков, последняя композиция "Main Squeeze" действует как экстатическая разрядка, прекрасный, фанковый джем-сейшн, где все, кажется, получают огромное удовольствие.

Лог проверки качества
foobar2000 1.4.6 / Dynamic Range Meter 1.1.1
log date: 2021-11-09 04:07:19
--------------------------------------------------------------------------------
Analyzed: Chuck Mangione / Main Squeeze
--------------------------------------------------------------------------------
DR         Peak         RMS     Duration Track
--------------------------------------------------------------------------------
DR12      -0.34 dB   -15.09 dB      8:00 01-(The Day After) Our First Night Together
DR12      -0.34 dB   -14.86 dB      7:58 02-If You Know Me Any Longer Than Tomorrow
DR12      -0.34 dB   -15.02 dB      4:52 03-Love The Feelin'
DR10      -0.34 dB   -12.73 dB      4:28 04-I Get Crazy (When Your Eyes Touch Mine)
DR12      -0.34 dB   -14.91 dB      7:02 05-Doin' Everything With You
DR10      -0.34 dB   -12.19 dB      5:31 06-Main Squeeze
--------------------------------------------------------------------------------
Number of tracks:  6
Official DR value: DR11
Samplerate:        96000 Hz
Channels:          2
Bits per sample:   24
Bitrate:           3016 kbps
Codec:             FLAC
================================================================================
Download available for power users only.
To become a power user - read FAQ.
14:07
173
Нет комментариев. Ваш будет первым!