Поиск

2022 Lou Levy - All that Jazz, Vol. 143: Tune Up! {Jube Legends} [24-48]

2022 Lou Levy - All that Jazz, Vol. 143: Tune Up! {Jube Legends} [24-48]
Стили:
Дата издания диска:
25 марта 2022
Издатель (лейбл):
Носитель:
WEB
Тип рипа:
tracks
Битрейт аудио:
lossless
Наличие сканов:
только обложка

01 - Tune Up 03:47
02 - Toots Sweet 05:25
03 - The Grey Fox 03:32
04 - Without You 03:53
05 - The Gal in Calico 04:28
06 - Jazz City Blues 04:10
07 - Wall Street 03:10
08 - Imagination 04:28
09 - My Old Flame 05:41
10 - The Lady Is a Tramp (From "Babes in Arms") 04:03
11 - Full Count 06:23
12 - I'm Gettiing Sentimental Over You 03:08
13 - Indiana 03:31
14 - Four 03:55
15 - Star Eyes 05:12
16 - Groovin' Higher 05:10

Состав:
  • Lou Levy — piano
  • Leroy Vinegar — bass
  • Stanley Levey — drums
  • Larry Bunker — vibraphone
  • Lawrence Marable — drums
  • Conte Candoli — trumpet
  • Bill Holman — saxophone
Лог проверки качества
foobar2000 1.4.3 / Dynamic Range Meter 1.1.1
log date: 2022-03-26 22:03:50
--------------------------------------------------------------------------------
Analyzed: Lou Levy / All that Jazz, Vol. 143: Tune Up!
--------------------------------------------------------------------------------
DR         Peak         RMS     Duration Track
--------------------------------------------------------------------------------
DR13      -0.01 dB   -15.26 dB      3:48 01-Tune Up
DR12      -0.01 dB   -13.63 dB      5:25 02-Toots Sweet
DR11      -0.01 dB   -13.94 dB      3:32 03-The Grey Fox
DR12      -0.01 dB   -14.56 dB      3:53 04-Without You
DR11      -0.01 dB   -13.84 dB      4:28 05-The Gal in Calico
DR12      -0.01 dB   -14.31 dB      4:11 06-Jazz City Blues
DR11      -0.01 dB   -12.79 dB      3:10 07-Wall Street
DR12      -0.01 dB   -14.56 dB      4:28 08-Imagination
DR14      -0.01 dB   -16.85 dB      5:41 09-My Old Flame
DR12      -0.01 dB   -14.37 dB      4:04 10-The Lady Is a Tramp (From "Babes in Arms")
DR11      -0.01 dB   -13.43 dB      6:23 11-Full Count
DR11      -0.01 dB   -13.46 dB      3:08 12-I'm Gettiing Sentimental Over You
DR14      -0.01 dB   -16.46 dB      3:31 13-Indiana
DR11      -0.01 dB   -13.11 dB      3:56 14-Four
DR13      -0.01 dB   -15.72 dB      5:12 15-Star Eyes
DR12      -0.01 dB   -14.82 dB      5:11 16-Groovin' Higher
--------------------------------------------------------------------------------
Number of tracks:  16
Official DR value: DR12
Samplerate:        48000 Hz
Channels:          2
Bits per sample:   24
Bitrate:           1413 kbps
Codec:             FLAC
================================================================================
Скачивание доступно после регистрации!!
Приватный:
Нет (DHT включён)
Размер:
711.12 Мб (745,659,226 байт) » файлов: 20
Участники:
0 раздают, 0 качают (0 участников всего)
Внешние участники:
2 раздают, 1 качают (3 участников всего) [ Обновить ]
16:10
561
Нет комментариев. Ваш будет первым!