Вы используете незарегистрированную версию компонента "Вкладки"!

Поиск

1961 Anita O'Day - Trav'lin' Light (2019) {RevOla} [24-44,1]

1961 Anita O'Day - Trav'lin' Light (2019) {RevOla} [24-44,1]
Стили:
Дата записи диска:
18-19 января 1961
Место записи:
Hollywood, USA
Издатель (лейбл):
Время звучания:
00:35:49
Доп. инфо:

Формат записи/Источник записи: [TR24][OF]
Наличие водяных знаков: Нет
Издание: Remastered
Год издания/переиздания диска: 1961/2019
Издатель (лейбл): RevOla
Наличие сканов в содержимом раздачи: Только обложка альбома

Контейнер: FLAC (*.flac)
Тип рипа: tracks
Разрядность: 24/44,1
Формат: PCM
Количество каналов: 2.0

Источник: qobuz.com

Лог проверки качества
foobar2000 1.3.9 / Dynamic Range Meter 1.1.1
log date: 2019-12-19 01:39:19

--------------------------------------------------------------------------------
Analyzed: Anita O'Day / Trav'lin' Light
--------------------------------------------------------------------------------

DR         Peak         RMS     Duration Track
--------------------------------------------------------------------------------
DR11      -0.49 dB   -15.12 dB      3:35 01-Trav'lin Light
DR10      -0.04 dB   -12.78 dB      3:58 02-The Moon Looks Down And Laughs
DR11      -0.29 dB   -15.47 dB      3:11 03-Don't Explain
DR11      -1.31 dB   -14.92 dB      2:38 04-Remember
DR11      -0.01 dB   -13.87 dB      2:26 05-Some Other Spring
DR11      -0.54 dB   -15.22 dB      2:29 06-What A Little Moonlight Can Do
DR11      -0.11 dB   -13.63 dB      4:02 07-Miss Brown To You
DR12      -0.58 dB   -16.24 dB      2:08 08-God Bless The Child
DR14      -0.55 dB   -17.23 dB      2:55 09-If The Moon Turns Green
DR12      -0.01 dB   -15.04 dB      2:15 10-I Hear Music
DR12       0.00 dB   -14.73 dB      2:50 11-Lover, Come Back To Me
DR13      -0.01 dB   -15.79 dB      3:23 12-Crazy He Calls Me
--------------------------------------------------------------------------------

Number of tracks:  12
Official DR value: DR12

Samplerate:        44100 Hz
Channels:          2
Bits per sample:   24
Bitrate:           1529 kbps
Codec:             FLAC
================================================================================
Any questions - support@pro-jazz.com. Есть вопросы - support@pro-jazz.com
14:49
259
Нет комментариев. Ваш будет первым!