Поиск

2020 Tim Ray with Terri Lyne Carrington & John Patitucci - Excursions and Adventures {Whaling City Sound} [24-96]

2020 Tim Ray with Terri Lyne Carrington & John Patitucci - Excursions and Adventures {Whaling City Sound} [24-96]
Стили:
Издатель (лейбл):
Носитель:
WEB
Формат:
DSF
Тип рипа:
tracks+.cue
Контейнер:
FLAC (*.flac)
Количество каналов:
2.0
Разрядность/ЧД:
24/96
Время звучания:
01:05:55
Наличие сканов:
web
Релизёр (источник):
M0p94ok

This album is available on our DC++ hub: dc.pro-jazz.com
Этот альбом доступен на нашем DC++ хабе: dc.pro-jazz.com

Треклист:

01. Nothing from Nothing  05:28
02. Maria (From "West Side Story")  05:04
03. Gone, Not Forgotten  06:30
04. Paint It, Black  07:33
05. Trinkle Tinkle  04:41
06. Unconditional Love  07:04
07. Messiaen’s Gumbo  04:54
08. Yours Is My Heart Alone (From "The Land of Smiles")  06:21
09. Samsara (For Wayne Shorter)  07:50
10. Yo 11  06:18
11. Paint It, Black (Radio Edit)  04:12

Состав:
Лог проверки качества
foobar2000 1.4.3 / Dynamic Range Meter 1.1.1
log date: 2020-01-30 09:03:16

--------------------------------------------------------------------------------
Analyzed: Tim Ray with Terri Lyne Carrington & John Patitucci / Excursions and Adventures
--------------------------------------------------------------------------------

DR         Peak         RMS     Duration Track
--------------------------------------------------------------------------------
DR9       -0.21 dB   -11.53 dB      5:28 01-Nothing from Nothing
DR10      -0.21 dB   -13.17 dB      5:04 02-Maria (From "West Side Story")
DR13      -0.22 dB   -17.38 dB      6:30 03-Gone, Not Forgotten
DR10      -0.21 dB   -12.82 dB      7:33 04-Paint It, Black
DR10      -0.21 dB   -12.54 dB      4:41 05-Trinkle Tinkle
DR11      -0.21 dB   -13.79 dB      7:05 06-Unconditional Love
DR9       -0.21 dB   -11.32 dB      4:55 07-Messiaen’s Gumbo
DR9       -0.21 dB   -11.60 dB      6:21 08-Yours Is My Heart Alone (From "The Land of Smiles")
DR9       -0.21 dB   -12.62 dB      7:51 09-Samsara (For Wayne Shorter)
DR9       -0.21 dB   -11.21 dB      6:19 10-Yo 11
DR9       -0.21 dB   -12.05 dB      4:13 11-Paint It, Black (Radio Edit)
--------------------------------------------------------------------------------

Number of tracks:  11
Official DR value: DR10

Samplerate:        96000 Hz
Channels:          2
Bits per sample:   24
Bitrate:           3217 kbps
Codec:             FLAC
================================================================================
17:47
812
Нет комментариев. Ваш будет первым!