Вы используете незарегистрированную версию компонента "Вкладки"!

Поиск

1961 Anita O'Day - Waiter, Make Mine Blues (2019) {RevOla} [24-44,1]

1961 Anita O'Day - Waiter, Make Mine Blues (2019) {RevOla} [24-44,1]
Дата записи диска:
1 августа - 7 октября 1960
Дата издания диска:
апрель 1961
Издатель (лейбл):
Доп. инфо:

Формат записи/Источник записи: [TR24][OF]
Наличие водяных знаков: Нет
Издание: Remastered
Год издания/переиздания диска: 1961/2019
Издатель (лейбл): RevOla
Продолжительность: 42:00
Наличие сканов в содержимом раздачи: Только обложка альбома

Контейнер: FLAC (*.flac)
Тип рипа: tracks
Разрядность: 24/44,1
Формат: PCM
Количество каналов: 2.0

Источник: qobuz.com

Лог проверки качества
foobar2000 1.3.9 / Dynamic Range Meter 1.1.1
log date: 2019-12-19 10:42:38

--------------------------------------------------------------------------------
Analyzed: Anita O'Day / Waiter, Make Mine Blues
--------------------------------------------------------------------------------

DR         Peak         RMS     Duration Track
--------------------------------------------------------------------------------
DR13      -5.27 dB   -22.54 dB      2:28 01-That Old Feeling
DR13      -6.90 dB   -24.89 dB      3:39 02-Angel Eyes
DR14      -3.52 dB   -22.32 dB      2:14 03-The Thrill Is Gone
DR15      -2.54 dB   -20.99 dB      4:24 04-Detour Ahead
DR14      -4.15 dB   -22.42 dB      5:11 05-Yesterdays
DR12      -5.77 dB   -22.03 dB      3:21 06-Waiter, Make Mine Blues
DR13      -5.27 dB   -24.14 dB      4:42 07-Whatever Happened To You?
DR13      -8.30 dB   -24.95 dB      3:03 08-When Sunny Gets Blue
DR12      -5.11 dB   -22.71 dB      2:50 09-Stella By Starlight
DR13      -5.85 dB   -23.77 dB      3:26 10-Mad About The Boy
DR12      -6.04 dB   -23.16 dB      3:01 11-A Blues Serenade
DR13      -5.87 dB   -23.21 dB      3:41 12-Good-Bye
--------------------------------------------------------------------------------

Number of tracks:  12
Official DR value: DR13

Samplerate:        44100 Hz
Channels:          2
Bits per sample:   24
Bitrate:           1372 kbps
Codec:             FLAC
================================================================================
Any questions - support@pro-jazz.com. Есть вопросы - support@pro-jazz.com
14:09
312
Нет комментариев. Ваш будет первым!