Поиск

1960 Tito Puente & Buddy Morrow And Their Orchestras - Revolving Bandstand (2019) {RevOla} [24-44,1]

1960 Tito Puente & Buddy Morrow And Their Orchestras - Revolving Bandstand (2019) {RevOla} [24-44,1]
Стили:
Треклист:

01. Bahia (Na Baixa Do Sapateiro) (2:06)
02. I Concentrate On You (3:16)
03. Autumn Leaves (3:11)
04. Harlem Nocturne (2:44)
05. Kiss Of Fire (3:11)
06. The Continental (2:39)
07. Blue Moon (2:36)
08. Temptation (3:32)
09. So In Love (2:41)
10. Baby Won't You Please Come Home (2:21)

Доп. инфо:

Формат записи/Источник записи: [TR24][OF]
Наличие водяных знаков: Нет
Издание: Remastered
Год издания/переиздания диска: 1960/2019
Издатель (лейбл): RevOla
Продолжительность: 28:17
Наличие сканов в содержимом раздачи: Только обложка альбома

Контейнер: FLAC (*.flac)
Тип рипа: tracks
Разрядность: 24/44,1
Формат: PCM
Количество каналов: 2.0

Источник: qobuz.com

Лог проверки качества
foobar2000 1.3.9 / Dynamic Range Meter 1.1.1
log date: 2020-01-27 16:48:13

--------------------------------------------------------------------------------
Analyzed: Tito Puente & Buddy Morrow And Their Orchestras / Revolving Bandstand
--------------------------------------------------------------------------------

DR         Peak         RMS     Duration Track
--------------------------------------------------------------------------------
DR10      -2.16 dB   -15.29 dB      2:06 01-Bahia (Na Baixa Do Sapateiro)
DR10      -1.87 dB   -15.30 dB      3:16 02-I Concentrate On You
DR11      -0.57 dB   -16.18 dB      3:11 03-Autumn Leaves
DR10      -1.44 dB   -14.98 dB      2:44 04-Harlem Nocturne
DR10      -1.54 dB   -14.14 dB      3:11 05-Kiss Of Fire
DR10      -1.17 dB   -14.66 dB      2:39 06-The Continental
DR11      -1.65 dB   -15.82 dB      2:36 07-Blue Moon
DR11      -1.34 dB   -14.98 dB      3:32 08-Temptation
DR11      -1.86 dB   -15.23 dB      2:41 09-So In Love
DR10      -2.08 dB   -15.60 dB      2:21 10-Baby Won't You Please Come Home
--------------------------------------------------------------------------------

Number of tracks:  10
Official DR value: DR10

Samplerate:        44100 Hz
Channels:          2
Bits per sample:   24
Bitrate:           1433 kbps
Codec:             FLAC
================================================================================
Приватный:
Нет (DHT включён)
Размер:
293.86 Мб (308,132,157 байт) » файлов: 13
Участники:
11 раздают, 0 качают (11 участников всего)
Внешние участники:
5 раздают, 2 качают (7 участников всего) [ Обновить ]
No seeders - write a personal message to user M0p94ok. Нет сидеров - пишите личное сообщение пользователю M0p94ok.
10:44
43
Нет комментариев. Ваш будет первым!