Поиск

2018 Tom Arthurs Trio - One Year {Ozella OZ1077CD} [24-88,2]

2018 Tom Arthurs Trio - One Year {Ozella OZ1077CD} [24-88,2]
Стили:
Дата издания диска:
9 февраля 2018
Издатель (лейбл):
Номер по каталогу:
OZ1077CD
Носитель:
WEB
Формат:
PCM
Тип рипа:
tracks
Контейнер:
FLAC (*.flac)
Количество каналов:
2.0
Разрядность/ЧД:
24/88,2
Время звучания:
00:48:24
Наличие сканов:
только обложка
Наличие водяных знаков:
да
Страна-производитель диска (релиза):
Germany
Релизёр (источник):
M0p94ok
Треклист:

1. Evergreens  08:09
2. Pyörähdellen  09:41
3. Liepnitz in Ruhe  04:54
4. Verklöstert  06:51
5. One Year / Song  08:33
6. Rising  10:16

Лог проверки качества
foobar2000 1.3.16 / Dynamic Range Meter 1.1.1
log date: 2018-12-07 16:43:05

--------------------------------------------------------------------------------
Analyzed: Tom Arthurs Trio / One Year
--------------------------------------------------------------------------------

DR         Peak         RMS     Duration Track
--------------------------------------------------------------------------------
DR13      -0.10 dB   -18.99 dB      8:09 01-Evergreens
DR13      -0.10 dB   -18.71 dB      9:41 02-Pyörähdellen
DR11      -6.20 dB   -22.75 dB      4:55 03-Liepnitz in Ruhe
DR15      -0.10 dB   -19.91 dB      6:52 04-Verklöstert
DR11      -0.10 dB   -15.24 dB      8:33 05-One Year / Song
DR12      -0.10 dB   -16.85 dB     10:17 06-Rising
--------------------------------------------------------------------------------

Number of tracks:  6
Official DR value: DR13

Samplerate:        88200 Hz
Channels:          2
Bits per sample:   24
Bitrate:           2065 kbps
Codec:             FLAC
================================================================================
Приватный:
Нет (DHT включён)
Размер:
714.36 Мб (749,063,275 байт) » файлов: 8
Участники:
6 раздают, 0 качают (6 участников всего)
Внешние участники:
--- [ Обновить ]
Есть вопросы - пишите личное сообщение пользователю M0p94ok.
23:53
24
Нет комментариев. Ваш будет первым!