Поиск

2019 Peter Zummo - Deep Drive {Unheard of Hope UOH001} [24-44,1]

2019 Peter Zummo - Deep Drive {Unheard of Hope UOH001} [24-44,1]
Дата издания диска:
13 сентября 2019

Треклист:

01. .Prepare for Docking .[13:59]
02. .Actual Serpentine .[06:11]
03. .Deep Drone .[03:36]
04. .Actual Serpentine (Reprise) .[02:27]
05. .Leapfrog a Local .[02:03]

Доп. инфо:

Носитель. WEB
Аудиокодек. FLAC (*.flac)
Тип рипа. tracks
Источник. red (bandcamp)
Продолжительность. 00:28:14

Лог проверки качества
foobar2000 1.3.9 / Dynamic Range Meter 1.1.1
log date: 2020-01-27 10:34:18

--------------------------------------------------------------------------------
Statistics for: 01-Prepare for Docking
Number of samples: 36995340
Duration: 13:59
--------------------------------------------------------------------------------

                 Left              Right

Peak Value:     -1.51 dB   ---     -1.94 dB
Avg RMS:       -15.94 dB   ---    -16.54 dB
DR channel:     10.98 dB   ---     11.57 dB
--------------------------------------------------------------------------------

Official DR Value: DR11

Samplerate:        44100 Hz
Channels:          2
Bits per sample:   24
Bitrate:           1465 kbps
Codec:             FLAC
================================================================================

foobar2000 1.3.9 / Dynamic Range Meter 1.1.1
log date: 2020-01-27 10:34:26

--------------------------------------------------------------------------------
Analyzed: Peter Zummo / Deep Drive
--------------------------------------------------------------------------------

DR         Peak         RMS     Duration Track
--------------------------------------------------------------------------------
DR12      -1.86 dB   -17.37 dB      6:11 02-Actual Serpentine
DR12      -1.52 dB   -18.25 dB      3:35 03-Deep Drone
DR8       -2.28 dB   -11.87 dB      2:26 04-Actual Serpentine (Reprise)
DR12      -1.83 dB   -16.45 dB      2:03 05-Leapfrog a Local
--------------------------------------------------------------------------------

Number of tracks:  4
Official DR value: DR11

Samplerate:        44100 Hz
Channels:          2
Bits per sample:   16
Bitrate:           511 kbps
Codec:             FLAC
================================================================================
Приватный:
Нет (DHT включён)
Размер:
205.00 Мб (214,957,065 байт) » файлов: 7
Участники:
5 раздают, 0 качают (5 участников всего)
Внешние участники:
--- [ Обновить ]
Есть вопросы - пишите личное сообщение пользователю M0p94ok.
20:31
26
Нет комментариев. Ваш будет первым!