Поиск

1989 Art Blakey & The Jazz Messengers - The Art of Jazz 70th Birthday Jubilee Concert (2019) {In+Out} [24-44,1]

1989 Art Blakey & The Jazz Messengers - The Art of Jazz 70th Birthday Jubilee Concert (2019) {In+Out} [24-44,1]
Стили:
Издатель (лейбл):
Треклист:

01 - Two of a Kind 12:25
02 - Moanin’ 09:24
03 - Along Came Betty 07:44
04 - Lester Left Town 07:10
05 - Mr. Blakey 05:20
06 - Drum Battle 01:52
07 - Blues March 15:51
08 - Buhaina’s Valediction 01:07
09 - Interview 12:49

Доп. инфо:

Формат записи/Источник записи: [TR24][OF]
Издание: Remastered
Год издания/переиздания диска: 1989/2019
Продолжительность: 01:13:39
Наличие сканов в содержимом раздачи: Нет

Контейнер: FLAC (*.flac)
Тип рипа: tracks
Разрядность: 24/44,1
Количество каналов: 2.0

Источник (релизер): Balkan Zoo

Лог проверки качества
foobar2000 1.4.3 / Dynamic Range Meter 1.1.1
log date: 2020-01-28 08:59:37

--------------------------------------------------------------------------------
Analyzed: Art Blakey with Jazz Messengers / The Art of Jazz - 70th Birthday Jubilee Concert (Remastered)
--------------------------------------------------------------------------------

DR         Peak         RMS     Duration Track
--------------------------------------------------------------------------------
DR9       -1.05 dB   -12.55 dB     12:25 01-Two of a Kind
DR8       -1.05 dB   -12.22 dB      9:24 02-Moanin'
DR11      -1.05 dB   -14.90 dB      7:44 03-Along Came Betty
DR9       -1.05 dB   -11.95 dB      7:10 04-Lester Left Town
DR8       -1.05 dB   -12.11 dB      5:20 05-Mr. Blakey
DR10      -1.05 dB   -14.73 dB      1:52 06-Drum Battle
DR8       -1.05 dB   -12.51 dB     15:51 07-Blues March
DR11      -1.05 dB   -16.76 dB      1:07 08-Buhaina's Valediction
DR13      -1.05 dB   -16.13 dB     12:49 09-Interview
--------------------------------------------------------------------------------

Number of tracks:  9
Official DR value: DR10

Samplerate:        44100 Hz
Channels:          2
Bits per sample:   24
Bitrate:           936 kbps
Codec:             FLAC
================================================================================
Приватный:
Нет (DHT включён)
Размер:
793.01 Мб (831,526,318 байт) » файлов: 13
Участники:
0 раздают, 0 качают (0 участников всего)
Внешние участники:
9 раздают, 3 качают (12 участников всего) [ Обновить ]
Есть вопросы - пишите личное сообщение пользователю M0p94ok.
14:34
18
Нет комментариев. Ваш будет первым!