Поиск

1958 Woody Herman & Tito Puente - Herman's Heat & Puente's Beat (2019) {RevOla} [24-44,1]

1958 Woody Herman & Tito Puente - Herman's Heat & Puente's Beat (2019) {RevOla} [24-44,1]
Треклист:

01. Latin Flight (2:03)
02. New Cha Cha (3:03)
03. Mambo Herd (2:40)
04. Tito Meets Woody (2:39)
05. Cha Cha Chick (3:02)
06. Blue Gardenia (3:11)
07. Prelude A La Cha Cha (4:05)
08. It's Coolin' Time (4:20)
09. Black Orchids (2:34)
10. Original No. 2 (3:09)
11. Sinbad The Sailor (4:03)
12. Mambo Bambo (3:19)
13. Fire Island (3:16)

Доп. инфо:

Формат записи/Источник записи: [TR24][OF]
Наличие водяных знаков: Нет
Издание: Remastered
Год издания/переиздания диска: 1958/2019
Издатель (лейбл): RevOla
Продолжительность: 41:24
Наличие сканов в содержимом раздачи: Только обложка альбома
Контейнер: FLAC (*.flac)
Тип рипа: tracks
Разрядность: 24/44,1
Формат: PCM
Количество каналов: 2.0

Источник: qobuz.com

Лог проверки качества
foobar2000 1.3.9 / Dynamic Range Meter 1.1.1
log date: 2020-01-28 14:08:24

--------------------------------------------------------------------------------
Analyzed: Woody Herman & Tito Puente / Herman's Heat & Puente's Beat
--------------------------------------------------------------------------------

DR         Peak         RMS     Duration Track
--------------------------------------------------------------------------------
DR11      -5.19 dB   -18.49 dB      2:03 01-Latin Flight
DR11      -4.43 dB   -18.37 dB      3:03 02-New Cha Cha
DR11      -4.91 dB   -18.50 dB      2:40 03-Mambo Herd
DR12      -3.65 dB   -17.51 dB      2:39 04-Tito Meets Woody
DR11      -2.82 dB   -16.91 dB      3:02 05-Cha Cha Chick
DR12      -4.37 dB   -18.41 dB      3:11 06-Blue Gardenia
DR11      -4.60 dB   -19.70 dB      4:05 07-Prelude A La Cha Cha
DR12      -5.33 dB   -20.82 dB      4:20 08-It's Coolin' Time
DR10      -4.61 dB   -17.85 dB      2:34 09-Black Orchids
DR12      -5.59 dB   -21.70 dB      3:09 10-Original No. 2
DR11      -4.57 dB   -18.63 dB      4:03 11-Sinbad The Sailor
DR12      -6.55 dB   -22.16 dB      3:19 12-Mambo Bambo
DR11      -5.51 dB   -20.01 dB      3:16 13-Fire Island
--------------------------------------------------------------------------------

Number of tracks:  13
Official DR value: DR11

Samplerate:        44100 Hz
Channels:          2
Bits per sample:   24
Bitrate:           1423 kbps
Codec:             FLAC
================================================================================
Приватный:
Нет (DHT включён)
Размер:
448.05 Мб (469,818,490 байт) » файлов: 18
Участники:
2 раздают, 9 качают (11 участников всего)
Внешние участники:
1 раздают, 0 качают (1 участников всего) [ Обновить ]
Есть вопросы - пишите личное сообщение пользователю M0p94ok.
21:10
38
Нет комментариев. Ваш будет первым!