Поиск

2019 Paolo Fresu & Daniele Di Bonaventura - Altissima Luce: Laudario Di Cortona {Tŭk Music} [24-96]

2019 Paolo Fresu & Daniele Di Bonaventura - Altissima Luce: Laudario Di Cortona {Tŭk Music} [24-96]
Стили:
Треклист:

01. Altissima luce col grande splendore (7:33)
02. Voi ch'amate lo Criatore (7:03)
03. Laude novella sïa cantata (6:26)
04. Sïa laudato San Francesco (5:09)
05. Onne homo ad alta voce (1:58)
06. Salutiam divotamente (4:59)
07. Ave, Donna santissima (6:43)
08. Amor dolçe sença pare (7:29)
09. Venite a laudare (4:34)
10. Jesu Cristo glorioso (5:15)
11. Ave, Regina gloriosa (7:04)
12. Troppo perde 'l tempo ki ben non t'ama (4:20)
13. Laudar vollio per amore (5:56)

Доп. инфо:

Формат записи/Источник записи: [TR24][OF]
Наличие водяных знаков: Нет
Год издания/переиздания диска: 2019
Издатель (лейбл): Tŭk Music
Продолжительность: 01:14:28
Наличие сканов в содержимом раздачи: Буклет PDF

Контейнер: FLAC (*.flac)
Тип рипа: tracks
Разрядность: 24/96
Формат: PCM
Количество каналов: 2.0

Источник: qobuz.com

Лог проверки качества
foobar2000 1.3.9 / Dynamic Range Meter 1.1.1
log date: 2020-01-29 00:42:54

--------------------------------------------------------------------------------
Analyzed: Paolo Fresu & Daniele Di Bonaventura / Altissima Luce: Laudario Di Cortona
--------------------------------------------------------------------------------

DR         Peak         RMS     Duration Track
--------------------------------------------------------------------------------
DR12      -0.30 dB   -16.51 dB      7:33 01-Altissima luce col grande splendore
DR11      -0.30 dB   -14.46 dB      7:03 02-Voi ch'amate lo Criatore
DR8       -0.30 dB   -12.55 dB      6:26 03-Laude novella sïa cantata
DR9       -0.30 dB   -12.05 dB      5:09 04-Sïa laudato San Francesco
DR12      -1.63 dB   -17.93 dB      1:58 05-Onne homo ad alta voce
DR11      -0.30 dB   -14.46 dB      4:59 06-Salutiam divotamente
DR13      -0.30 dB   -16.86 dB      6:43 07-Ave, Donna santissima
DR12      -0.30 dB   -16.38 dB      7:29 08-Amor dolçe sença pare
DR11      -0.30 dB   -13.56 dB      4:34 09-Venite a laudare
DR10      -0.30 dB   -12.43 dB      5:15 10-Jesu Cristo glorioso
DR11      -0.30 dB   -13.66 dB      7:04 11-Ave, Regina gloriosa
DR12      -0.30 dB   -15.93 dB      4:20 12-Troppo perde 'l tempo ki ben non t'ama
DR10      -0.30 dB   -15.20 dB      5:56 13-Laudar vollio per amore
--------------------------------------------------------------------------------

Number of tracks:  13
Official DR value: DR11

Samplerate:        96000 Hz
Channels:          2
Bits per sample:   24
Bitrate:           2875 kbps
Codec:             FLAC
================================================================================
Приватный:
Нет (DHT включён)
Размер:
1.53 Гб (1,640,145,450 байт) » файлов: 18
Участники:
2 раздают, 1 качают (3 участников всего)
Внешние участники:
--- [ Обновить ]
Есть вопросы - пишите личное сообщение пользователю M0p94ok.
11:16
25
Нет комментариев. Ваш будет первым!