Поиск

2018 Zoot Octet & Neil Saidi - Zoot Suite, Vol. 2 {Zoot ZR02LP} [24-96]

2018 Zoot Octet & Neil Saidi - Zoot Suite, Vol. 2 {Zoot ZR02LP} [24-96]
Стили:
Номер по каталогу:
ZR02LP
Носитель:
WEB
Формат:
PCM
Тип рипа:
tracks
Контейнер:
FLAC (*.flac)
Количество каналов:
2.0
Разрядность/ЧД:
24/96
Формат записи/Источник записи:
[TR24][OF]
Время звучания:
01:07:48
Наличие сканов:
только обложка
Наличие водяных знаков:
нет
Релизёр (источник):
M0p94ok

Треклист:

01    Mov1 : Wanderlust    3:24
02    Malloy Blues    3:46
03    Revlis    4:16
04    Salmon Jump    5:15
05    Mov2 : Monkologist    4:12
06    Alfortown Zoo    4:17
07    Lady Young Of Algiers    5:48
08    Wade In The Shine Of The Ever    4:01
09    Mov3 : Zoot Emergency    2:51
10    Trim's Dreams    3:05
11    Zootin' With Bud    3:26
12    Nious Lives    5:35
13    Mov4 : Happy Life    5:36
14    Concerto For Codji    6:06
15    Serenade For A Bone    4:59
16    That's It    1:10

Лог проверки качества
foobar2000 1.3.16 / Dynamic Range Meter 1.1.1
log date: 2018-11-13 04:09:23

--------------------------------------------------------------------------------
Analyzed: Zoot Octet / Zoot Suite, Vol. 2
--------------------------------------------------------------------------------

DR         Peak         RMS     Duration Track
--------------------------------------------------------------------------------
DR9       -0.14 dB   -13.12 dB      3:24 01-Mov. 1: Wanderlust
DR12      -0.15 dB   -15.41 dB      3:44 02-Malloy Blues
DR9       -0.15 dB   -12.28 dB      4:16 03-Revlis
DR11      -0.15 dB   -14.25 dB      5:18 04-Salmon Jump
DR10      -0.15 dB   -14.42 dB      4:12 05-Mov. 2: Monkologist
DR9       -1.14 dB   -12.87 dB      4:17 06-Alfortown Zoo
DR10      -0.14 dB   -13.04 dB      5:49 07-Lady Young of Algiers
DR8       -0.14 dB   -11.09 dB      4:01 08-Wade in the Shine of the Ever
DR9       -0.14 dB   -12.26 dB      2:52 09-Mov. 3: Zoot Emergency
DR11      -0.15 dB   -14.20 dB      3:05 10-Trim's Dreams
DR10      -1.17 dB   -13.51 dB      3:27 11-Zootin' with Bud
DR10      -0.14 dB   -13.51 dB      5:36 12-Nious Lives
DR10      -0.15 dB   -12.72 dB      5:36 13-Mov. 4: Happy Life
DR10      -0.15 dB   -13.33 dB      6:07 14-Concerto for Codji
DR8       -0.14 dB   -12.38 dB      5:00 15-Serenade for a Bone
DR9       -1.17 dB   -13.50 dB      1:11 16-That's It
--------------------------------------------------------------------------------

Number of tracks:  16
Official DR value: DR10

Samplerate:        96000 Hz
Channels:          2
Bits per sample:   24
Bitrate:           2863 kbps
Codec:             FLAC
================================================================================
Приватный:
Нет (DHT включён)
Размер:
1.36 Гб (1,464,006,029 байт) » файлов: 18
Участники:
5 раздают, 1 качают (6 участников всего)
Внешние участники:
--- [ Обновить ]
Есть вопросы - пишите личное сообщение пользователю M0p94ok.
11:54
23
Нет комментариев. Ваш будет первым!