Поиск

2019 Paolo Fresu, OJdM, Paolo Silvestri - Norma {Tŭk Music} [24-48]

2019 Paolo Fresu, OJdM, Paolo Silvestri - Norma {Tŭk Music} [24-48]
Стили:
Треклист:

01. Casta Diva (9:44)
02. Ite sul colle, o druidi (7:21)
03. Dormono entrambi / Mira o Norma (12:57)
04. Va, crudele, al Dio spietato (9:32)
05. Deh! Proteggimi o Dio! / Oh! Rimembranza! (10:14)
06. Oh! Di qual sei tu vittima (3:19)
07. Guerra! Guerra! / Qual cor tradisti / Deh! Non volerli vittime (13:55)

Доп. инфо:

Формат записи/Источник записи: [TR24][OF]
Наличие водяных знаков: Нет
Год издания/переиздания диска: 2019
Издатель (лейбл): Tŭk Music
Продолжительность: 01:07:03
Наличие сканов в содержимом раздачи: Только обложка альбома

Контейнер: FLAC (*.flac)
Тип рипа: tracks
Разрядность: 24/48
Формат: PCM
Количество каналов: 2.0

Источник: qobuz.com

Лог проверки качества
foobar2000 1.3.9 / Dynamic Range Meter 1.1.1
log date: 2020-01-29 01:30:53

--------------------------------------------------------------------------------
Analyzed: Paolo Fresu, Orchestra Jazz del Mediterraneo, cond. Paolo Silvestri / Norma (arr. for Jazz Orchestra)
--------------------------------------------------------------------------------

DR         Peak         RMS     Duration Track
--------------------------------------------------------------------------------
DR11      -0.30 dB   -15.65 dB      9:44 01-Casta Diva
DR11      -0.30 dB   -14.25 dB      7:21 02-Ite sul colle, o druidi
DR12      -0.30 dB   -16.62 dB     12:57 03-Dormono entrambi / Mira o Norma
DR10      -0.30 dB   -13.53 dB      9:32 04-Va, crudele, al Dio spietato
DR11      -0.30 dB   -14.93 dB     10:14 05-Deh! Proteggimi o Dio! / Oh! Rimembranza!
DR13      -0.30 dB   -16.04 dB      3:19 06-Oh! Di qual sei tu vittima
DR9       -0.30 dB   -13.59 dB     13:55 07-Guerra! Guerra! / Qual cor tradisti / Deh! Non volerli vittime
--------------------------------------------------------------------------------

Number of tracks:  7
Official DR value: DR11

Samplerate:        48000 Hz
Channels:          2
Bits per sample:   24
Bitrate:           1670 kbps
Codec:             FLAC
================================================================================
Приватный:
Нет (DHT включён)
Размер:
786.53 Мб (824,736,702 байт) » файлов: 11
Участники:
3 раздают, 0 качают (3 участников всего)
Внешние участники:
--- [ Обновить ]
Есть вопросы - пишите личное сообщение пользователю M0p94ok.
21:37
17
Нет комментариев. Ваш будет первым!