Поиск

2018 Accidental Associations - Accidental Associations {Accidental Sound} [24-44,1]

2018 Accidental Associations - Accidental Associations {Accidental Sound} [24-44,1]
Дата издания диска:
10 мая 2018
Носитель:
WEB
Формат:
PCM
Тип рипа:
tracks
Контейнер:
FLAC (*.flac)
Количество каналов:
2.0
Разрядность/ЧД:
24/44,1
Формат записи/Источник записи:
[TR24][OF]
Время звучания:
00:47:47
Наличие сканов:
только обложка
Наличие водяных знаков:
нет
Релизёр (источник):
M0p94ok

Треклист:

01. Escaping Time 05:38    
02. Outsider 03:56    
03. Lost in Contemplation 05:54    
04. Selva Oscura 05:16    
05. Prelude 00:57    
06. Sleeping Land 05:22    
07. The Hermit 04:35    
08. Yage's Lake 04:49    
09. The Transition 04:41    
10. The Implant - The Breakthrough 06:39

Лог проверки качества
foobar2000 1.4.3 / Dynamic Range Meter 1.1.1
log date: 2020-03-12 22:28:55

--------------------------------------------------------------------------------
Analyzed: Accidental Associations / Accidental Associations
--------------------------------------------------------------------------------

DR         Peak         RMS     Duration Track
--------------------------------------------------------------------------------
DR10      -0.17 dB   -11.74 dB      5:38 01-Escaping Time
DR8       -0.35 dB   -10.54 dB      3:56 02-Outsider
DR9       -0.20 dB   -11.82 dB      5:55 03-Lost In Contemplation
DR9       -0.37 dB   -11.52 dB      5:16 04-Selva Oscura
DR12      -4.93 dB   -20.32 dB      0:57 05-Prelude
DR9       -0.30 dB   -11.81 dB      5:22 06-Sleeping Land
DR9       -0.32 dB   -12.01 dB      4:35 07-The Hermit
DR10      -0.31 dB   -13.10 dB      4:50 08-Yage's Lake
DR9       -0.25 dB   -11.62 dB      4:42 09-The Transition
DR8       -0.19 dB   -11.00 dB      6:40 10-The Implant - the Breakthrough
--------------------------------------------------------------------------------

Number of tracks:  10
Official DR value: DR9

Samplerate:        44100 Hz
Channels:          2
Bits per sample:   24
Bitrate:           1500 kbps
Codec:             FLAC
================================================================================
Приватный:
Нет (DHT включён)
Размер:
502.59 Мб (527,006,566 байт) » файлов: 12
Участники:
18 раздают, 0 качают (18 участников всего)
Внешние участники:
--- [ Обновить ]
Есть вопросы - пишите личное сообщение пользователю M0p94ok.
22:54
22
Нет комментариев. Ваш будет первым!