Поиск

1960 Si Zentner and His Orchestra - The Swingin' Eye (2016) {Trunk} [24-44,1]

1960 Si Zentner and His Orchestra - The Swingin' Eye (2016) {Trunk} [24-44,1]
Дата издания диска:
1 января 1960
Носитель:
WEB
Формат:
PCM
Тип рипа:
tracks+.cue
Контейнер:
APE (*.ape)
Количество каналов:
2.0
Разрядность/ЧД:
24/44,1
Битрейт аудио:
lossless
Время звучания:
00:34:44
Наличие сканов:
web
Страна-производитель диска (релиза):
UK
Релизёр (источник):
M0p94ok
Лог проверки качества
foobar2000 1.3.16 / Dynamic Range Meter 1.1.1
log date: 2019-03-25 23:47:57

--------------------------------------------------------------------------------
Analyzed: Si Zentner and His Orchestra / The Swingin' Eye
--------------------------------------------------------------------------------

DR         Peak         RMS     Duration Track
--------------------------------------------------------------------------------
DR12      -5.42 dB   -20.58 dB      2:54 01-Lonesome Road (Si Zentner And His Orchestra)
DR12      -5.58 dB   -22.33 dB      2:57 02-Chaser (Si Zentner And His Orchestra)
DR12      -6.05 dB   -22.19 dB      3:08 03-Little Jazz (Si Zentner And His Orchestra)
DR13      -5.92 dB   -23.08 dB      2:59 04-Throwin' Stones At The Sun (Si Zentner And His Orchestra)
DR12      -4.70 dB   -18.70 dB      2:53 05-The Swingin' Eye (Si Zentner And His Orchestra)
DR13      -4.48 dB   -22.57 dB      2:38 06-There's No You (Si Zentner And His Orchestra)
DR12      -6.35 dB   -21.07 dB      2:48 07-Melancholy Serenade (Si Zentner And His Orchestra)
DR12      -6.25 dB   -23.80 dB      2:30 08-Yes! We Have No Bananas (Si Zentner And His Orchestra)
DR12      -7.02 dB   -21.78 dB      2:26 09-Armen's Theme (Si Zentner And His Orchestra)
DR13      -6.35 dB   -23.28 dB      3:04 10-Way In (Si Zentner And His Orchestra)
DR13      -6.98 dB   -23.24 dB      3:12 11-I'm Always Chasing Rainbows (Si Zentner And His Orchestra)
DR12      -5.85 dB   -21.04 dB      3:20 12-Never Like This (Si Zentner And His Orchestra)
--------------------------------------------------------------------------------

Number of tracks:  12
Official DR value: DR12

Samplerate:        44100 Hz
Channels:          2
Bits per sample:   24
Bitrate:           1420 kbps
Codec:             FLAC
================================================================================
No seeders - write personal message to M0p94ok. Any questions - support@pro-jazz.com.
Нет сидеров - пишите в личку M0p94ok. Есть вопросы - support@pro-jazz.com
17:32
190
Нет комментариев. Ваш будет первым!