Поиск

2016 Chucho Valdes - Tribute to Irakere: Live in Marciac {Jazz Village} [24-48]

2016 Chucho Valdes - Tribute to Irakere: Live in Marciac {Jazz Village} [24-48]
Стили:
Дата издания диска:
4 марта 2016
Битрейт аудио:
lossless
Время звучания:
01:09:38
Доп. инфо:

Формат записи/Источник записи: [TR24][OF]
Год издания/переиздания диска: 2015
Жанр: Latin Jazz
Издатель (лейбл): Jazz Village
Продолжительность: 01:09:38
Наличие сканов в содержимом раздачи: Буклет PDF

Контейнер: FLAC (*.flac)
Тип рипа: tracks
Разрядность: 24/48
Количество каналов: 2.0

Источник (релизер): Qobuz

Лог проверки качества
foobar2000 1.4.3 / Dynamic Range Meter 1.1.1
log date: 2020-10-21 22:55:57

--------------------------------------------------------------------------------
Analyzed: Chucho Valdes / Tribute to Irakere: Live in Marciac
--------------------------------------------------------------------------------

DR         Peak         RMS     Duration Track
--------------------------------------------------------------------------------
DR12      -0.10 dB   -15.82 dB      7:57 01-Juana 1600 (Live)
DR9       -0.10 dB   -12.57 dB      8:09 02-Lorena's Tango (Live)
DR9       -0.10 dB   -11.68 dB     10:34 03-Congadanza (Live)
DR9       -0.10 dB   -12.76 dB     17:55 04-Afro-Comanche (Live)
DR9       -0.10 dB   -12.45 dB      7:13 05-Afro-Funk (Live)
DR10      -0.10 dB   -13.15 dB     17:53 06-Yansá (Live)
--------------------------------------------------------------------------------

Number of tracks:  6
Official DR value: DR10

Samplerate:        48000 Hz
Channels:          2
Bits per sample:   24
Bitrate:           923 kbps
Codec:             FLAC
================================================================================
No seeders - write personal message to M0p94ok. Any questions - support@pro-jazz.com.
Нет сидеров - пишите в личку M0p94ok. Есть вопросы - support@pro-jazz.com
22:32
194
Нет комментариев. Ваш будет первым!