Поиск

2019 Sendecki & Spiegel - Two In The Mirror {SKIP} [24-44,1]

2019 Sendecki & Spiegel - Two In The Mirror {SKIP} [24-44,1]
Дата издания диска:
29 марта 2019
Номер по каталогу:
SKP 9143-2
Носитель:
WEB
Формат:
PCM
Тип рипа:
tracks+.cue
Контейнер:
APE (*.ape)
Количество каналов:
2.0
Разрядность/ЧД:
24/44,1
Битрейт аудио:
lossless
Время звучания:
00:54:10
Наличие сканов:
web
Страна-производитель диска (релиза):
USA
Лог проверки качества
foobar2000 1.5.5 / Dynamic Range Meter 1.1.1
log date: 2020-11-29 10:34:54

--------------------------------------------------------------------------------
Analyzed: Sendecki & Spiegel / Two in the Mirror
--------------------------------------------------------------------------------

DR         Peak         RMS     Duration Track
--------------------------------------------------------------------------------
DR10       0.00 dB   -12.65 dB      6:01 01-Meanwhile in Heaven
DR7        0.00 dB    -9.19 dB      3:05 02-Wroooong
DR9        0.00 dB   -12.51 dB      5:53 03-A New Day
DR9        0.00 dB   -10.16 dB      3:07 04-Two in the Mirror
DR8        0.00 dB   -11.73 dB      7:18 05-Come Home
DR8        0.00 dB   -10.08 dB      4:46 06-Lucky but Unhappy
DR9        0.00 dB   -11.55 dB      4:11 07-Good Morning Tokyo
DR9        0.00 dB   -10.92 dB      6:24 08-The Wanderer
DR9        0.00 dB   -12.04 dB      4:38 09-Die Brücke
DR10      -0.10 dB   -13.46 dB      4:09 10-Elegy
DR8       -0.02 dB   -10.55 dB      4:45 11-Phantasia in a Flat
--------------------------------------------------------------------------------

Number of tracks:  11
Official DR value: DR9

Samplerate:        44100 Hz
Channels:          2
Bits per sample:   24
Bitrate:           1401 kbps
Codec:             FLAC
================================================================================
No seeders - write personal message to M0p94ok. Any questions - support@pro-jazz.com.
Нет сидеров - пишите в личку M0p94ok. Есть вопросы - support@pro-jazz.com
12:02
235
Нет комментариев. Ваш будет первым!